<?xml version="1.0" standalone="no"?>
<!DOCTYPE svg PUBLIC "-//W3C//DTD SVG 1.1//EN" "http://www.w3.org/Graphics/SVG/1.1/DTD/svg11.dtd" >
<svg xmlns="http://www.w3.org/2000/svg" xmlns:xlink="http://www.w3.org/1999/xlink" version="1.1">
<metadata>
Created by FontForge 20170731 at Thu Jan  1 09:20:06 1970
 By Aleksey,,,
Typeface (c) The Monotype Corporation plc. Data (c) The Monotype Corporation plc/Type Solutions Inc. 1990-1992. All Rights Reserved
</metadata>
<defs>
<font id="Arial-BoldItalicMT" horiz-adv-x="1139" >
  <font-face 
    font-family="Arial"
    font-weight="700"
    font-style="italic"
    font-stretch="normal"
    units-per-em="2048"
    panose-1="2 11 7 4 2 2 2 9 2 4"
    ascent="1638"
    descent="-410"
    x-height="1062"
    cap-height="1466"
    bbox="-509 -434 2209 1869"
    underline-thickness="215"
    underline-position="-538"
    slope="-12"
    unicode-range="U+0020-FB02"
  />
<missing-glyph horiz-adv-x="1536" 
d="M256 0v1280h1024v-1280h-1024zM288 32h960v1216h-960v-1216z" />
    <glyph glyph-name="fi" unicode="fi" horiz-adv-x="1251" 
d="M831 1062l-44 -210h-203l-178 -852h-287l178 852h-160l44 210h160l23 109q29 138 53 181q74 139 278 139q133 0 278 -48l-56 -205q-105 35 -167 35q-49 0 -73 -31q-15 -20 -33 -105l-16 -75h203zM1069 1466h287l-54 -260h-287zM985 1062h287l-222 -1062h-287z" />
    <glyph glyph-name="fl" unicode="fl" horiz-adv-x="1251" 
d="M828 1062l-44 -210h-203l-178 -852h-287l178 852h-160l44 210h160l23 109q29 138 53 181q74 139 278 139q132 0 278 -48l-56 -205q-105 35 -167 35q-49 0 -73 -31q-16 -20 -33 -105l-16 -75h203zM760 0l307 1466h287l-307 -1466h-287z" />
    <glyph glyph-name=".notdef" horiz-adv-x="1536" 
d="M256 0v1280h1024v-1280h-1024zM288 32h960v1216h-960v-1216z" />
    <glyph glyph-name=".null" horiz-adv-x="0" 
 />
    <glyph glyph-name="nonmarkingreturn" horiz-adv-x="682" 
 />
    <glyph glyph-name="space" unicode=" " horiz-adv-x="569" 
 />
    <glyph glyph-name="exclam" unicode="!" horiz-adv-x="682" 
d="M418 373h-158l90 748l72 345h301l-77 -371zM184 277h284l-58 -277h-284z" />
    <glyph glyph-name="quotedbl" unicode="&#x22;" horiz-adv-x="971" 
d="M310 945l5 273l53 248h306l-53 -248l-104 -273h-207zM674 945l5 273l53 248h306l-53 -248l-104 -273h-207z" />
    <glyph glyph-name="numbersign" unicode="#" 
d="M234 365h-136v220h180l60 295h-240v221h285l79 390h224l-79 -390h221l77 390h232l-80 -390h138v-221h-183l-60 -295h243v-220h-288l-79 -390h-223l77 390h-222l-79 -390h-226zM563 880l-59 -295h222l58 295h-221z" />
    <glyph glyph-name="dollar" unicode="$" 
d="M429 -10q-143 35 -235 149q-92 116 -104 287l253 13q19 -172 133 -224l92 442q-160 71 -233 180q-73 110 -73 231q0 109 58 209q58 102 166 158q108 57 204 57l53 -1l18 86h143l-22 -103q130 -33 207.5 -125t90.5 -234l-246 -13q-18 112 -97 155l-83 -398
q333 -135 333 -425q0 -192 -143 -327q-143 -134 -375 -134l-37 -176h-143zM623 918l76 363q-85 1 -142 -54q-56 -54 -56 -129q0 -112 122 -180zM699 596l-84 -401q113 9 174 70q62 62 62 145q0 55 -28 95t-124 91z" />
    <glyph glyph-name="percent" unicode="%" horiz-adv-x="1821" 
d="M186 1011q0 192 103 335q103 145 288 145q126 0 201 -80q76 -79 76 -223q0 -120 -52 -237q-51 -119 -140 -175q-88 -55 -199 -55q-125 0 -201 78q-76 77 -76 212zM397 988q0 -98 82 -98q72 0 120 108q49 108 49 230q0 44 -23 68.5t-60 24.5q-41 0 -76 -35
q-33 -34 -63 -135q-29 -102 -29 -163zM485 -63h-231l1222 1554h230zM1102 229q0 191 103 336t288 145q126 0 201 -80q76 -79 76 -223q0 -119 -52 -238q-51 -118 -140 -174q-88 -55 -199 -55q-125 0 -201 78q-76 77 -76 211zM1312 207q0 -98 83 -98q72 0 120 108
q49 107 49 229q0 44 -23 69t-60 25q-41 0 -76 -35q-33 -35 -63 -135t-30 -163z" />
    <glyph glyph-name="ampersand" unicode="&#x26;" horiz-adv-x="1479" 
d="M1239 638l207 -124q-27 -52 -76 -122q-49 -67 -86 -102q53 -57 146 -136l-181 -188q-36 19 -87 61q-50 41 -88 81q-75 -60 -185 -96.5t-231 -36.5q-228 0 -358 120q-130 121 -130 296q0 107 50 203t135 167q59 49 192 120q-65 142 -65 246q0 154 112 259t297 105
q159 0 250 -84q93 -83 93 -195q0 -94 -80 -206q-81 -111 -261 -202q58 -98 142 -220q51 -77 82 -109q53 53 122 163zM789 1000q118 60 166 121q34 43 34 89q0 42 -28 68t-75 26q-61 0 -100.5 -42t-39.5 -108q0 -65 43 -154zM651 679q-198 -99 -198 -261q0 -92 59 -151
t157 -59q118 0 245 83q-149 182 -263 388z" />
    <glyph glyph-name="quotesingle" unicode="'" horiz-adv-x="487" 
d="M310 945l5 273l53 248h306l-53 -248l-104 -273h-207z" />
    <glyph glyph-name="parenleft" unicode="(" horiz-adv-x="682" 
d="M491 -431h-195q-81 186 -122 387q-39 195 -39 358q0 408 266 828q84 135 273 349h218q-192 -225 -295 -421q-103 -195 -154 -429q-51 -232 -51 -454q0 -153 22 -292q22 -137 77 -326z" />
    <glyph glyph-name="parenright" unicode=")" horiz-adv-x="682" 
d="M241 1491h195q82 -189 121 -386q40 -194 40 -358q0 -408 -266 -829q-84 -135 -273 -349h-218q188 220 293 420q105 199 155 428q51 233 51 456q0 154 -22 292q-23 144 -76 326z" />
    <glyph glyph-name="asterisk" unicode="*" horiz-adv-x="797" 
d="M418 792l-151 117q75 84 150 155q21 20 39 38q-22 4 -143 33q-88 22 -112 31l59 176q130 -52 234 -117q-24 163 -24 266h178q0 -73 -27 -268q22 8 86 39q105 47 166 70l53 -181q-102 -23 -257 -49l120 -135q25 -28 57 -67l-153 -101l-135 223q-70 -124 -140 -230z" />
    <glyph glyph-name="plus" unicode="+" horiz-adv-x="1196" 
d="M549 211v381h-384v263h384v381h256v-381h385v-263h-385v-381h-256z" />
    <glyph glyph-name="comma" unicode="," horiz-adv-x="569" 
d="M146 277h289l-48 -229q-40 -197 -132 -280q-91 -83 -234 -86l28 133q73 16 112 58t58 127h-132z" />
    <glyph glyph-name="hyphen" unicode="-" horiz-adv-x="682" 
d="M137 667h557l-58 -277h-557z" />
    <glyph glyph-name="period" unicode="." horiz-adv-x="569" 
d="M148 277h284l-58 -277h-284z" />
    <glyph glyph-name="slash" unicode="/" horiz-adv-x="569" 
d="M-89 -25l726 1516h200l-725 -1516h-201z" />
    <glyph glyph-name="zero" unicode="0" 
d="M132 477q0 222 75 448q91 272 234 409.5t322 137.5q178 0 292 -129q115 -128 115 -375q0 -225 -84 -476q-82 -250 -225 -384q-142 -133 -320 -133q-179 0 -294 129q-115 128 -115 373zM414 419q0 -117 38 -166q38 -48 98 -48q80 0 142 74q82 99 147 390q51 231 51 366
q0 106 -37 156.5t-100 50.5q-77 0 -135 -73q-87 -107 -150 -373q-54 -231 -54 -377z" />
    <glyph glyph-name="one" unicode="1" 
d="M243 842l54 256q371 162 574 377h175l-309 -1475h-289l213 1016q-89 -58 -208 -106q-119 -49 -210 -68z" />
    <glyph glyph-name="two" unicode="2" 
d="M541 1009l-281 42q35 205 158 312q124 109 312 109q205 0 322 -111t117 -282q0 -177 -154 -358q-59 -68 -193 -193q-149 -139 -178 -170q-38 -39 -83 -96h508l-54 -262h-891q27 206 187 387q66 75 271 271q151 145 187 185q122 136 122 238q0 73 -44 120q-43 46 -110 46
q-68 0 -119 -52q-52 -52 -77 -186z" />
    <glyph glyph-name="three" unicode="3" 
d="M104 383l275 33q17 -113 60 -160t120 -47q97 0 162 66q65 67 65 169q0 90 -52 142.5t-140 52.5q-25 0 -46 -4l50 239q20 -2 29 -2q113 0 174 58t61 159q0 71 -40 112t-107 41q-136 0 -189 -201l-262 52q49 161 139 249q134 130 332 130q202 0 307 -113t105 -269
q0 -115 -67 -206q-68 -92 -184 -135q90 -47 135.5 -124t45.5 -166q0 -162 -115 -298q-158 -186 -405 -186q-186 0 -307 106q-120 107 -146 302z" />
    <glyph glyph-name="four" unicode="4" 
d="M633 299h-577l50 240l793 927h248l-193 -923h178l-51 -244h-178l-63 -299h-270zM684 543l95 457l-387 -457h292z" />
    <glyph glyph-name="five" unicode="5" 
d="M130 420l279 25q-1 -13 -1 -30q0 -99 44.5 -151.5t119.5 -52.5q103 0 185 97q84 98 84 270q0 100 -46 153t-126 53q-114 0 -210 -105l-236 18l223 749h737l-54 -262h-487l-67 -226q85 38 167 38q168 0 276 -113t108 -303q0 -152 -76 -300q-74 -146 -209 -226
q-133 -79 -281 -79q-187 0 -308 121q-121 122 -122 324z" />
    <glyph glyph-name="six" unicode="6" 
d="M1179 1108l-269 -22q-8 84 -40.5 120.5t-91.5 36.5q-73 0 -130 -58q-80 -81 -130 -268q92 61 197 61q170 0 280 -116t110 -316q0 -158 -77 -301q-77 -142 -192 -206q-116 -65 -243 -65q-124 0 -222.5 62.5t-151.5 178.5q-53 120 -53 316q0 393 174 667t459 274
q337 0 380 -364zM442 431q0 -112 44 -169t116 -57q84 0 144 78q81 105 81 282q0 114 -45 168q-45 55 -110 55q-56 0 -111 -42q-57 -41 -88 -132q-31 -89 -31 -183z" />
    <glyph glyph-name="seven" unicode="7" 
d="M212 1181l55 265h967l-43 -204q-91 -73 -203 -223q-114 -153 -206 -332q-93 -180 -154 -348q-84 -233 -103 -339h-273q19 113 85 302q170 491 502 879h-627z" />
    <glyph glyph-name="eight" unicode="8" 
d="M440 807q-154 102 -154 265q0 94 54 191t161 153q109 56 244 56q197 0 306 -102q110 -102 110 -258q0 -219 -248 -327q179 -109 179 -313q0 -166 -106 -302q-154 -196 -421 -196q-193 0 -312 114q-118 115 -118 292q0 148 82 263q83 116 223 164zM549 1053
q0 -69 42 -111.5t109 -42.5q77 0 135 58q59 59 59 137q0 72 -43 115q-44 44 -110 44q-79 0 -136 -58q-56 -59 -56 -142zM421 375q0 -81 44.5 -128.5t117.5 -47.5q111 0 171 98q61 97 61 213q0 74 -47 121q-46 48 -118 48q-89 0 -160 -83q-69 -82 -69 -221z" />
    <glyph glyph-name="nine" unicode="9" 
d="M130 338l269 22q8 -84 40.5 -120t91.5 -36q73 0 129 57q81 81 130 268q-93 -60 -196 -60q-171 0 -280 115q-110 116 -110 316q0 224 141 398t374 174q205 0 315 -150q109 -149 109 -406q0 -396 -175 -668q-174 -273 -459 -273q-166 0 -267 95q-100 96 -112 268zM867 1016
q0 117 -46 170q-46 55 -114 55q-84 0 -144 -78q-81 -105 -81 -282q0 -113 45 -169q45 -54 110 -54q59 0 114 44.5t84 129.5q32 93 32 184z" />
    <glyph glyph-name="colon" unicode=":" horiz-adv-x="682" 
d="M366 1062h283l-58 -278h-283zM202 277h284l-58 -277h-284z" />
    <glyph glyph-name="semicolon" unicode=";" horiz-adv-x="682" 
d="M371 1062h284l-58 -278h-284zM208 277h289l-48 -229q-40 -197 -132 -280q-91 -83 -234 -86l28 133q73 16 112 58t58 127h-132z" />
    <glyph glyph-name="less" unicode="&#x3c;" horiz-adv-x="1196" 
d="M1180 167l-1005 437v242l1005 435v-285l-701 -268l701 -278v-283z" />
    <glyph glyph-name="equal" unicode="=" horiz-adv-x="1196" 
d="M165 816v258h1025v-258h-1025zM165 372v259h1025v-259h-1025z" />
    <glyph glyph-name="greater" unicode="&#x3e;" horiz-adv-x="1196" 
d="M175 166v283l702 276l-702 273v281l1006 -435v-240z" />
    <glyph glyph-name="question" unicode="?" horiz-adv-x="1251" 
d="M700 366h-258q20 134 83 232q65 99 255 264q160 141 189 186q29 46 29 87q0 65 -50.5 105t-148.5 40q-114 0 -184 -62t-100 -194l-263 46q51 195 197 308t355 113q219 0 340 -109q122 -108 122 -259q0 -88 -52 -176q-52 -86 -285 -280q-145 -121 -180 -170
q-34 -47 -49 -131zM412 277h284l-58 -277h-284z" />
    <glyph glyph-name="at" unicode="@" horiz-adv-x="1997" 
d="M1849 19h213q-101 -203 -307 -318q-237 -132 -578 -132q-331 0 -570 112q-240 111 -357 328t-117 474q0 282 133 523q133 243 364 364q232 122 528 122q250 0 448 -98q195 -97 299 -279q104 -181 104 -394q0 -256 -157 -461q-197 -260 -505 -260q-81 0 -123.5 28
t-57.5 86q-118 -114 -272 -114q-166 0 -276 114q-109 115 -109 305q0 235 132 429q161 236 410 236q178 0 263 -136l25 111h264l-151 -717q-14 -70 -14 -88q0 -24 11 -37t28 -13q48 0 124 58q102 76 165 204t63 265q0 246 -178 411q-178 166 -497 166q-268 0 -457.5 -109.5
t-286.5 -312.5q-95 -201 -95 -417q0 -212 106 -384t299 -252q195 -80 441 -80q478 0 688 266zM768 430q0 -127 51 -187q53 -60 128 -60q58 0 107 28q38 19 75 63q54 64 91 178q39 117 39 218q0 112 -53 173q-52 61 -132 61q-86 0 -159 -67q-72 -65 -110 -189
q-37 -121 -37 -218z" />
    <glyph glyph-name="A" unicode="A" horiz-adv-x="1479" 
d="M1044 324h-581l-176 -324h-310l829 1466h335l238 -1466h-286zM1007 568l-85 590l-354 -590h439z" />
    <glyph glyph-name="B" unicode="B" horiz-adv-x="1479" 
d="M82 0l307 1466h501q167 0 228 -10q159 -18 247.5 -112t88.5 -234q0 -257 -278 -347q113 -32 176 -111q64 -79 64 -179q0 -133 -75 -251q-74 -117 -207 -170q-131 -52 -361 -52h-691zM566 874h230q157 0 223 22q67 22 102 72q34 49 34 107q0 56 -32 92t-91 48
q-33 6 -159 6h-234zM433 236h291q182 0 245 23q62 24 100 78q38 55 38 114q0 73 -54 120q-54 48 -180 48h-360z" />
    <glyph glyph-name="C" unicode="C" horiz-adv-x="1479" 
d="M1146 528l304 -46q-88 -248 -267 -378q-178 -130 -417 -130q-270 0 -421 162q-151 161 -151 470q0 249 101 457q102 209 282 318q181 110 392 110q237 0 385 -128t173 -347l-289 -28q-24 126 -91.5 184.5t-183.5 58.5q-125 0 -234 -76q-109 -77 -173 -238
q-65 -162 -65 -322q0 -176 84 -272q85 -96 211 -96q117 0 214 76q98 77 146 225z" />
    <glyph glyph-name="D" unicode="D" horiz-adv-x="1479" 
d="M89 0l307 1466h395q159 0 211 -5q270 -27 393 -237q89 -148 89 -366q0 -238 -91 -421q-90 -182 -227 -291q-104 -83 -271 -124q-92 -22 -289 -22h-517zM440 236h153q165 0 240 20q75 21 137 77q88 81 150 216q61 134 61 318q0 156 -51 234q-49 79 -124 105
q-53 18 -185 18h-175z" />
    <glyph glyph-name="E" unicode="E" horiz-adv-x="1366" 
d="M84 0l306 1466h1087l-51 -245h-785l-70 -333h759l-51 -245h-759l-92 -398h853l-52 -245h-1145z" />
    <glyph glyph-name="F" unicode="F" horiz-adv-x="1251" 
d="M80 0l307 1466h1026l-52 -245h-724l-74 -352h710l-51 -245h-710l-130 -624h-302z" />
    <glyph glyph-name="G" unicode="G" horiz-adv-x="1593" 
d="M900 783h656l-132 -629q-114 -74 -285 -127q-166 -52 -343 -52q-272 0 -417 123q-198 168 -198 487q0 215 85 410q102 235 290 366q187 130 442 130q253 0 406.5 -117.5t204.5 -344.5l-281 -32q-74 250 -327 250q-147 0 -268 -76q-122 -77 -191 -235q-69 -159 -69 -347
q0 -362 330 -362q97 0 199 27q103 29 176 66l45 218h-374z" />
    <glyph glyph-name="H" unicode="H" horiz-adv-x="1479" 
d="M1095 655h-567l-137 -655h-302l307 1466h301l-118 -566h567l119 566h301l-306 -1466h-302z" />
    <glyph glyph-name="I" unicode="I" horiz-adv-x="569" 
d="M71 0l307 1466h301l-306 -1466h-302z" />
    <glyph glyph-name="J" unicode="J" 
d="M932 1466h296l-185 -888q-74 -353 -194 -478t-369 -125q-212 0 -316 97q-105 98 -105 264q0 30 5 78l279 30q-6 -44 -6 -73q0 -144 163 -144q116 0 163 68q36 55 85 293z" />
    <glyph glyph-name="K" unicode="K" horiz-adv-x="1479" 
d="M81 0l306 1466h302l-130 -623l678 623h404l-658 -575l483 -891h-341l-362 698l-285 -249l-94 -449h-303z" />
    <glyph glyph-name="L" unicode="L" horiz-adv-x="1251" 
d="M92 0l307 1466h301l-255 -1221h746l-51 -245h-1048z" />
    <glyph glyph-name="M" unicode="M" horiz-adv-x="1706" 
d="M927 0h-286l-53 1225l-233 -1225h-272l306 1466h430l45 -1027l500 1027h435l-307 -1466h-275l289 1216z" />
    <glyph glyph-name="N" unicode="N" horiz-adv-x="1479" 
d="M1256 0h-281l-396 985l-206 -985h-281l306 1466h282l397 -981l205 981h280z" />
    <glyph glyph-name="O" unicode="O" horiz-adv-x="1593" 
d="M179 575q0 130 39 274q105 398 419 559q160 83 362 83q273 0 439 -169q168 -170 168 -448q0 -232 -109 -449q-110 -218 -296 -334q-187 -117 -423 -117q-204 0 -344 93q-138 92 -197 230q-58 137 -58 278zM477 581q0 -150 92 -253q91 -102 242 -102q121 0 234 80
q113 81 186 244q74 165 74 319q0 173 -93 271q-93 99 -237 99q-220 0 -360 -206q-138 -205 -138 -452z" />
    <glyph glyph-name="P" unicode="P" horiz-adv-x="1366" 
d="M385 0h-302l307 1466h596q158 0 251 -38t147 -124t54 -206q0 -112 -43 -216q-44 -106 -106 -168q-61 -63 -134 -96q-75 -33 -194 -49q-67 -10 -266 -10h-193zM552 802h93q239 0 319 30t126 96q46 65 46 145q0 104 -90 136q-41 16 -189 16h-216z" />
    <glyph glyph-name="Q" unicode="Q" horiz-adv-x="1593" 
d="M1078 29q-142 -55 -300 -55q-267 0 -434 167q-165 168 -165 438q0 222 103 447q104 227 290 345q187 120 427 120q273 0 439 -169q167 -169 167 -448q0 -213 -90 -410q-88 -196 -239 -318q95 -94 202 -154l-142 -187q-139 67 -258 224zM1103 355q89 89 146 238
q56 147 56 275q0 174 -93 272q-93 99 -237 99q-192 0 -338 -177q-70 -84 -115 -213q-44 -129 -44 -254q0 -172 94 -270q95 -98 242 -98q41 0 86 6q15 3 19 6t4 9q0 8 -30 36q-64 61 -134 86l110 168q135 -68 234 -183z" />
    <glyph glyph-name="R" unicode="R" horiz-adv-x="1479" 
d="M392 0h-302l307 1466h651q167 0 261 -35q94 -34 151 -126q58 -91 58 -223q0 -188 -112 -309t-339 -150q59 -53 109 -137q100 -172 225 -486h-324q-39 124 -153 387q-61 141 -132 191q-44 29 -150 29h-123zM565 827h160q241 0 322 29q79 28 125 91q45 61 45 130
q0 79 -65 120q-41 24 -173 24h-332z" />
    <glyph glyph-name="S" unicode="S" horiz-adv-x="1366" 
d="M130 475l287 15q6 -136 47 -185q66 -78 244 -78q147 0 214 53q66 52 66 128q0 65 -54 110q-38 34 -209 107q-169 73 -249 123q-168 108 -168 314q0 185 134 307t388 122q259 0 399 -121q143 -122 156 -322l-289 -13q-23 217 -268 217q-119 0 -175.5 -42t-56.5 -113
q0 -64 49 -104q49 -41 217 -115q253 -109 322 -177q103 -100 103 -257q0 -194 -154 -332q-154 -137 -427 -137q-188 0 -328 63q-138 64 -195 177t-53 260z" />
    <glyph glyph-name="T" unicode="T" horiz-adv-x="1251" 
d="M722 0h-302l256 1221h-430l51 245h1155l-51 -245h-424z" />
    <glyph glyph-name="U" unicode="U" horiz-adv-x="1479" 
d="M391 1466h301l-166 -796l-41 -196q-4 -23 -4 -47q0 -90 65 -145t183 -55q212 0 290 163q38 79 79 275l168 801h301l-167 -802q-52 -252 -122 -387q-69 -134 -209 -218q-139 -84 -354 -84q-255 0 -392 125q-136 126 -136 323q0 44 7 89q7 48 35 182z" />
    <glyph glyph-name="V" unicode="V" horiz-adv-x="1366" 
d="M817 0h-322l-263 1466h301l186 -1109l607 1109h299z" />
    <glyph glyph-name="W" unicode="W" horiz-adv-x="1933" 
d="M1478 0h-305l-33 1072l-534 -1072h-311l-55 1466h295l13 -1026l503 1026h327l34 -1015l483 1015h292z" />
    <glyph glyph-name="X" unicode="X" horiz-adv-x="1366" 
d="M328 0h-390l647 742l-364 724h315l143 -275q1 -3 12.5 -27t35 -72.5t50.5 -103.5q4 -6 13 -27q120 146 205 244l231 261h379l-671 -772l361 -694h-340l-110 221q-87 179 -114 251q-42 -63 -201 -244z" />
    <glyph glyph-name="Y" unicode="Y" horiz-adv-x="1366" 
d="M821 0h-301l119 571l-404 895h321l182 -414q64 -147 87 -215q44 75 86 138l139 194l207 297h350l-672 -923z" />
    <glyph glyph-name="Z" unicode="Z" horiz-adv-x="1251" 
d="M51 0l48 231l844 990h-683l51 245h1057l-44 -230l-853 -996q136 3 157 3q39 0 265 2h346l-51 -245h-1137z" />
    <glyph glyph-name="bracketleft" unicode="[" horiz-adv-x="682" 
d="M554 -190l-45 -214h-489l391 1870h488l-46 -223h-219l-299 -1433h219z" />
    <glyph glyph-name="backslash" unicode="\" horiz-adv-x="569" 
d="M387 -25l-227 1516h201l227 -1516h-201z" />
    <glyph glyph-name="bracketright" unicode="]" horiz-adv-x="682" 
d="M232 1252l45 214h491l-391 -1870h-491l47 224h221l299 1432h-221z" />
    <glyph glyph-name="asciicircum" unicode="^" horiz-adv-x="1196" 
d="M215 692l376 799h223l366 -799h-284l-198 489l-197 -489h-286z" />
    <glyph glyph-name="underscore" unicode="_" 
d="M-19 -405v182h1168v-182h-1168z" />
    <glyph glyph-name="grave" unicode="`" horiz-adv-x="682" 
d="M274 1499h276l128 -299h-194z" />
    <glyph glyph-name="a" unicode="a" 
d="M487 761l-280 24q49 145 170 223.5t314 78.5q205 0 303 -83t98 -201q0 -48 -9 -102q-7 -49 -59 -284q-42 -190 -42 -266q0 -69 24 -151h-279q-17 58 -21 120q-62 -69 -144 -107t-166 -38q-132 0 -218 86q-86 88 -86 223q0 152 94 243q93 90 338 110q203 16 274 41
q18 60 18 96q0 48 -38.5 78t-108.5 30q-149 0 -182 -121zM760 495q-22 -7 -69 -13q-214 -25 -282 -76q-47 -36 -47 -97q0 -51 36.5 -85t94.5 -34q66 0 122 31q57 31 86 81q28 49 51 155z" />
    <glyph glyph-name="b" unicode="b" horiz-adv-x="1251" 
d="M74 0l306 1466h288l-103 -490q79 60 147.5 85.5t149.5 25.5q168 0 269 -113t101 -327q0 -145 -48 -282q-46 -135 -127 -222q-156 -168 -350 -168q-228 0 -335 200l-37 -175h-261zM461 433q0 -107 60 -174q61 -67 143 -67q76 0 140.5 54t105.5 164q44 115 44 230
q0 112 -59 177t-141 65q-108 0 -186 -100q-107 -137 -107 -349z" />
    <glyph glyph-name="c" unicode="c" 
d="M802 400l279 -45q-68 -184 -203 -282t-314 -98q-204 0 -322 121q-119 122 -119 333q0 173 72 327t217 242q146 89 318 89q187 0 300 -98q112 -97 126 -258l-273 -29q-19 173 -171 173q-86 0 -157 -64t-109 -184q-38 -125 -38 -231q0 -91 45 -143.5t116 -52.5q72 0 135 52
t98 148z" />
    <glyph glyph-name="d" unicode="d" horiz-adv-x="1251" 
d="M1063 0h-272l24 115q-78 -75 -153.5 -107.5t-170.5 -32.5q-165 0 -268 112q-102 113 -102 333q0 256 144 461q144 206 381 206q214 0 321 -170l115 549h287zM400 432q0 -114 57 -178q58 -64 142 -64q81 0 147.5 55t105.5 162q41 111 41 211q0 115 -62 186t-143 71
q-126 0 -207 -140q-81 -139 -81 -303z" />
    <glyph glyph-name="e" unicode="e" 
d="M1116 442h-720q-1 -11 -1 -26q0 -106 60 -171q62 -65 148 -65q144 0 223 148l257 -43q-74 -153 -198.5 -231.5t-283.5 -78.5q-215 0 -348 135q-134 137 -134 359q0 219 121 388q165 230 471 230q195 0 310 -121q115 -119 115 -337q0 -102 -20 -187zM874 617q1 13 1 29
q0 115 -52 175.5t-143 60.5q-90 0 -160 -67q-69 -66 -95 -198h449z" />
    <glyph glyph-name="f" unicode="f" horiz-adv-x="682" 
d="M822 1062l-44 -210h-203l-178 -852h-287l178 852h-160l44 210h160l23 109q29 138 53 181q74 139 278 139q132 0 278 -48l-56 -205q-105 35 -167 35q-49 0 -73 -31q-16 -20 -33 -105l-16 -75h203z" />
    <glyph glyph-name="g" unicode="g" horiz-adv-x="1251" 
d="M67 -56l303 -44q0 -45 14.5 -69t48.5 -40q36 -17 92 -17q91 0 146 36q42 29 67 90q14 34 41 170l10 50q-148 -124 -308 -124q-155 0 -256 110q-100 109 -100 322q0 186 68 343q68 156 191 236q124 80 251 80q106 0 194.5 -56t136.5 -157l40 188h269l-184 -885
q-46 -215 -76 -304q-32 -93 -71 -145q-41 -55 -101 -90q-114 -69 -324 -69q-230 0 -342.5 78.5t-112.5 254.5q0 20 3 42zM405 457q0 -121 54 -185q55 -63 137 -63q74 0 145 57t108 162q38 106 38 203q0 114 -61 182q-62 69 -141 69t-143 -62.5t-105 -186.5q-32 -99 -32 -176
z" />
    <glyph glyph-name="h" unicode="h" horiz-adv-x="1251" 
d="M373 0h-287l307 1466h287l-110 -522q97 76 181 109q83 34 180 34q128 0 204 -74q75 -73 75 -194q0 -67 -28 -198l-130 -621h-287l133 633q21 103 21 132q0 53 -33 85t-90 32q-71 0 -138 -50q-86 -67 -131 -162q-25 -52 -66 -249z" />
    <glyph glyph-name="i" unicode="i" horiz-adv-x="569" 
d="M388 1466h287l-54 -260h-287zM304 1062h287l-222 -1062h-287z" />
    <glyph glyph-name="j" unicode="j" horiz-adv-x="569" 
d="M390 1466h288l-54 -260h-288zM306 1062h288l-189 -899q-79 -383 -137 -467q-85 -127 -276 -127q-117 0 -216 32l45 237q71 -17 116 -17q59 0 93 45q35 46 92 316z" />
    <glyph glyph-name="k" unicode="k" 
d="M77 0l307 1466h287l-160 -763l374 359h373l-427 -386l227 -676h-287l-146 491l-194 -172l-67 -319h-287z" />
    <glyph glyph-name="l" unicode="l" horiz-adv-x="569" 
d="M80 0l307 1466h286l-306 -1466h-287z" />
    <glyph glyph-name="m" unicode="m" horiz-adv-x="1821" 
d="M295 1062h270l-27 -129q157 154 332 154q229 0 268 -188q57 81 158 134q104 54 214 54q127 0 198 -68t71 -180q0 -57 -28 -190l-136 -649h-287l136 649q25 119 25 138q0 45 -27 70t-79 25q-107 0 -191 -113q-60 -79 -104 -287l-101 -482h-287l134 642q23 113 23 144
q0 43 -29 69.5t-78 26.5q-77 -3 -146 -63t-103 -168q-12 -37 -39 -163l-102 -488h-287z" />
    <glyph glyph-name="n" unicode="n" horiz-adv-x="1251" 
d="M308 1062h272l-28 -138q100 87 190 125t187 38q131 0 206 -75q76 -75 76 -199q0 -56 -33 -212l-125 -601h-287l126 603q28 133 28 161q0 55 -32.5 86.5t-90.5 31.5q-63 0 -140 -53q-78 -53 -121 -140q-31 -61 -72 -253l-91 -436h-287z" />
    <glyph glyph-name="o" unicode="o" horiz-adv-x="1251" 
d="M124 441q0 295 166 470q167 176 438 176q236 0 367 -130q132 -129 132 -348q0 -259 -165 -446q-165 -188 -442 -188q-150 0 -266 60t-173 170q-57 109 -57 236zM942 646q0 102 -60 163q-59 62 -153 62t-166 -58t-111 -167q-40 -108 -40 -201q0 -113 62 -181
q61 -67 156 -67q118 0 198 101q114 142 114 348z" />
    <glyph glyph-name="p" unicode="p" horiz-adv-x="1251" 
d="M295 1062h272l-23 -109q87 72 163 103t163 31q168 0 268 -115q102 -115 102 -343q0 -288 -175 -485q-150 -169 -355 -169q-211 0 -319 171l-115 -551h-287zM468 453q0 -124 60 -193q62 -68 143 -68q71 0 137 51q65 52 109 171q44 121 44 222q0 119 -57 182
q-57 64 -145 64q-83 0 -150.5 -59.5t-103.5 -171.5q-37 -111 -37 -198z" />
    <glyph glyph-name="q" unicode="q" horiz-adv-x="1251" 
d="M1016 1062h264l-306 -1467h-287l103 495q-79 -63 -143 -89q-69 -26 -152 -26q-169 0 -271 113q-102 112 -102 329q0 171 69 333q69 161 191 249t266 88q230 0 333 -192zM399 422q0 -108 58 -170q59 -63 140 -63q78 0 144.5 52.5t106.5 160.5q43 113 43 219q0 119 -61 186
q-62 68 -141 68q-67 0 -135 -52q-69 -54 -112 -172q-43 -117 -43 -229z" />
    <glyph glyph-name="r" unicode="r" horiz-adv-x="797" 
d="M288 1062h268l-43 -206q150 231 325 231q64 0 133 -31l-110 -235q-40 14 -83 14q-74 0 -151 -56q-75 -54 -119 -150q-42 -91 -85 -296l-70 -333h-287z" />
    <glyph glyph-name="s" unicode="s" 
d="M45 297l278 44q37 -88 92 -125q55 -36 150 -36q98 0 157 44q41 30 41 73q0 29 -21 52q-23 23 -119 54q-259 85 -322 136q-97 78 -97 204t94 217q130 127 389 127q205 0 310 -75q104 -74 133 -203l-265 -46q-21 58 -68 87q-64 39 -154 39q-85 0 -127 -28t-42 -71
q0 -41 40 -66q23 -15 161 -56q211 -62 281 -120q100 -82 100 -200q0 -151 -127 -262t-358 -111q-230 0 -356 84q-125 86 -170 238z" />
    <glyph glyph-name="t" unicode="t" horiz-adv-x="682" 
d="M154 849l44 213h140l35 170l329 198l-77 -368h175l-44 -213h-176l-93 -445q-25 -119 -25 -138q0 -35 22 -52.5t75 -17.5q24 0 95 7l-45 -213q-73 -15 -152 -15q-290 0 -290 221q0 51 37 226l89 427h-139z" />
    <glyph glyph-name="u" unicode="u" horiz-adv-x="1251" 
d="M302 1062h287l-131 -629q-24 -113 -24 -141q0 -46 34 -79t87 -33q74 0 151 58q83 64 128 168q17 42 41 150l106 506h287l-222 -1062h-268l30 144q-175 -169 -383 -169q-131 0 -206 75t-75 201q0 58 34 219z" />
    <glyph glyph-name="v" unicode="v" 
d="M613 0h-247l-213 1062h282l75 -463q30 -179 37 -250q7 17 69 129q57 105 76 136l264 448h310z" />
    <glyph glyph-name="w" unicode="w" horiz-adv-x="1593" 
d="M1192 0h-270l-52 676l-324 -676h-266l-133 1062h255l74 -712l331 712h261l36 -712l329 712h288z" />
    <glyph glyph-name="x" unicode="x" 
d="M571 298l-264 -298h-352l491 544l-270 518h305l155 -303l269 303h349l-493 -551l268 -511h-305z" />
    <glyph glyph-name="y" unicode="y" 
d="M171 1062h286l72 -529q27 -204 30 -286q53 156 154 344l254 471h304l-656 -1166q-78 -140 -128 -203q-46 -58 -112 -91q-64 -33 -157 -33q-89 0 -205 32l25 214q53 -15 101 -15q131 0 217 200z" />
    <glyph glyph-name="z" unicode="z" horiz-adv-x="1024" 
d="M34 0l41 194l582 644h-475l47 224h833l-35 -171l-587 -659h511l-49 -232h-868z" />
    <glyph glyph-name="braceleft" unicode="{" horiz-adv-x="797" 
d="M86 410l52 240q74 5 115 22q43 19 79 63q35 43 58 104q21 54 49 187q37 182 77 260q39 77 93 119q55 43 150 69q65 17 193 17h52l-51 -239q-113 0 -151 -15q-36 -13 -55 -44q-13 -21 -45 -147q-56 -222 -75 -270q-36 -87 -85 -142q-50 -55 -138 -104q60 -40 87.5 -95.5
t27.5 -144.5q0 -35 -12 -107q-33 -195 -42 -231q-8 -38 -8 -60q0 -56 57 -74q28 -9 125 -9l-52 -240h-53q-137 0 -206 23q-68 23 -105 74q-37 52 -37 134q0 65 35 226q35 163 35 213q0 88 -38 127t-132 44z" />
    <glyph glyph-name="bar" unicode="|" horiz-adv-x="573" 
d="M176 -431v1922h223v-1922h-223z" />
    <glyph glyph-name="braceright" unicode="}" horiz-adv-x="797" 
d="M692 410q-88 -4 -141 -36q-50 -31 -88 -104q-37 -69 -73 -245q-36 -174 -75 -250q-40 -78 -94 -119q-54 -44 -148 -69q-64 -18 -194 -18h-53l52 240q108 0 147 15q40 15 59 46q14 21 45 144q55 220 72 264q36 88 90 149t135 103q-66 49 -91 100q-25 50 -25 140
q0 35 12 106q30 185 41 231q9 41 9 67q0 54 -54 69q-28 9 -128 9l52 239h53q137 0 206 -23q68 -23 105 -74q37 -50 37 -132q0 -65 -35 -228q-35 -161 -35 -212q0 -88 38 -127.5t133 -44.5z" />
    <glyph glyph-name="asciitilde" unicode="~" horiz-adv-x="1196" 
d="M137 519v259q72 78 155 112q63 26 145 26q63 0 121 -15q52 -13 209 -77q102 -41 158 -41q143 0 274 141v-270q-49 -50 -132 -92t-160 -42q-52 0 -103 13q-55 15 -152 58q-153 67 -242 67q-140 0 -273 -139z" />
    <glyph glyph-name="exclamdown" unicode="&#xa1;" horiz-adv-x="682" 
d="M566 784h-284l58 278h284zM332 689h158l-92 -749l-72 -344h-302l77 370z" />
    <glyph glyph-name="cent" unicode="&#xa2;" 
d="M347 18q-102 46 -165 155q-62 109 -62 258q0 181 76 334q77 156 220 238q144 84 305 84q29 0 64 -3l155 378l121 -49l-147 -359q104 -42 167.5 -126.5t70.5 -196.5l-252 -26q-11 96 -69 148l-271 -661q7 -1 16 -1q153 0 237 208l264 -41q-64 -184 -199 -284
q-134 -99 -308 -99q-40 0 -96 8l-155 -378l-122 48zM439 243l268 651q-96 -6 -170 -75.5t-111 -189.5q-36 -120 -36 -225q0 -109 49 -161z" />
    <glyph glyph-name="sterling" unicode="&#xa3;" 
d="M333 841q-17 88 -17 164q0 209 141 347q140 139 359 139q189 0 305 -107q115 -106 129 -289l-257 -25q-17 104 -64 151.5t-124 47.5q-92 0 -159 -76q-66 -75 -66 -210q0 -51 15 -142h253l-47 -224h-195q-6 -115 -52 -202t-160 -191q74 30 148 30q35 0 98 -11
q83 -16 136 -16q110 0 228 53l86 -244q-90 -37 -136 -47q-67 -14 -133 -14q-99 0 -234 37q-133 37 -221 37q-136 0 -294 -86l-30 259q100 44 174 120q76 77 107 146q24 50 33 129h-230l47 224h160z" />
    <glyph glyph-name="currency" unicode="&#xa4;" 
d="M267 941l-132 131l166 178l136 -136q104 57 218 57q118 0 219 -57l134 134l167 -169l-132 -133q56 -103 56 -218q0 -114 -56 -218l134 -133l-167 -171l-136 136q-103 -57 -218 -57q-112 0 -216 56l-130 -131l-170 168l130 132q-57 106 -57 218q0 116 54 213zM454 728
q0 -84 59 -143q61 -59 143 -59q84 0 143 59t59 143t-59 143t-143 59t-143 -59t-59 -143z" />
    <glyph glyph-name="yen" unicode="&#xa5;" 
d="M647 0h-283l58 278h-373l40 193h373l27 127h-373l40 193h272l-204 675h292l71 -259q25 -92 79 -368q125 248 245 432l127 195h327l-463 -675h279l-40 -193h-369l-26 -127h368l-40 -193h-368z" />
    <glyph glyph-name="brokenbar" unicode="&#xa6;" horiz-adv-x="573" 
d="M176 701v790h223v-790h-223zM176 -431v791h223v-791h-223z" />
    <glyph glyph-name="section" unicode="&#xa7;" 
d="M44 -87l261 59q26 -107 77 -154t131 -47q66 0 102 31t36 80q0 35 -28 78q-26 42 -260 267q-125 119 -174 198q-50 82 -50 173q0 116 66 204t202 161q-60 97 -60 191q0 138 101 237q100 100 301 100q180 0 278.5 -84.5t119.5 -256.5l-259 -25q-11 168 -150 168
q-60 0 -96 -34.5t-36 -91.5q0 -41 24 -82q25 -41 148 -153q214 -191 264 -281q50 -89 50 -179q0 -106 -67 -198.5t-193 -155.5q84 -117 84 -223q0 -135 -109 -232q-107 -97 -300 -97q-188 0 -311 96q-122 96 -152 251zM521 819q-79 -49 -107 -92q-27 -42 -27 -91t34 -95
q24 -31 172 -174q93 -89 113 -109q72 28 116 82q29 35 29 80q0 38 -24 80q-23 42 -108 124q-185 180 -198 195z" />
    <glyph glyph-name="dieresis" unicode="&#xa8;" horiz-adv-x="682" 
d="M224 1468h246l-51 -245h-246zM645 1468h246l-51 -245h-246z" />
    <glyph glyph-name="copyright" unicode="&#xa9;" horiz-adv-x="1509" 
d="M855 1496q197 0 378 -99q180 -98 284 -283q104 -184 104 -384t-102 -382q-100 -180 -283 -283q-182 -101 -381 -101q-200 0 -382 101q-181 102 -283 283q-101 182 -101 382q0 202 103 384q103 184 285 283q181 99 378 99zM855 1345q-159 0 -304 -79q-146 -80 -228 -227
q-83 -148 -83 -309q0 -160 81 -306q83 -146 228 -228q145 -81 306 -81t306 81q146 83 227 228q82 145 82 306q0 160 -83 309q-81 146 -229 227q-145 79 -303 79zM1041 616l161 -54q-38 -125 -125.5 -192.5t-210.5 -67.5q-171 0 -279 112t-108 309q0 130 48.5 230.5
t137.5 150.5q92 50 203 50q124 0 206.5 -59t127.5 -184l-162 -38q-53 139 -178 139q-95 0 -151 -71t-56 -212q0 -146 57 -215t137 -69q142 0 192 171z" />
    <glyph glyph-name="ordfeminine" unicode="&#xaa;" horiz-adv-x="758" 
d="M427 1253l-192 26q87 212 337 212q140 0 206 -57q66 -56 66 -141q0 -69 -42 -230q-41 -161 -41 -200q0 -53 21 -104h-192q-8 25 -11 47q-91 -63 -197 -63q-98 0 -156 57q-58 58 -58 146q0 81 47 135.5t137 77.5q67 15 284 37q14 54 14 81q0 26 -22 42t-66 16
q-90 0 -135 -82zM592 1054q-163 -19 -196 -42q-32 -23 -32 -58q0 -28 21.5 -47.5t55.5 -19.5q54 0 91 34t60 133z" />
    <glyph glyph-name="guillemotleft" unicode="&#xab;" 
d="M577 553l389 424h244l-354 -446l127 -460h-206zM168 552l412 425h241l-361 -444l132 -462h-201z" />
    <glyph glyph-name="logicalnot" unicode="&#xac;" horiz-adv-x="1196" 
d="M933 376v441h-768v257h1025v-698h-257z" />
    <glyph glyph-name="registered" unicode="&#xae;" horiz-adv-x="1509" 
d="M855 1496q197 0 378 -99q180 -97 284 -282t104 -385t-102 -382q-100 -180 -283 -283q-182 -101 -381 -101q-200 0 -382 101q-181 102 -283 283q-101 182 -101 382q0 201 103 385q104 185 285 282q181 99 378 99zM856 1346q-158 0 -303 -79q-146 -80 -229 -227
q-83 -149 -83 -310q0 -162 81 -307q82 -145 228 -228q145 -82 306 -82t306 82q146 83 228 228t82 307t-84 310q-81 146 -229 227q-145 79 -303 79zM509 320v813h165q222 0 260 -2q81 -7 127 -32t76 -79q31 -52 31 -116q0 -89 -58 -151t-161 -77q35 -13 57 -31q24 -20 55 -62
q9 -12 60 -99l96 -164h-204l-68 132q-68 132 -114 167t-114 35h-43v-334h-165zM674 782h67q141 0 177 11q35 11 55 38q20 29 20 63t-19.5 60.5t-55.5 37.5q-36 12 -177 12h-67v-222z" />
    <glyph glyph-name="macron" unicode="&#xaf;" horiz-adv-x="682" 
d="M214 1427h640l-40 -193h-640z" />
    <glyph glyph-name="degree" unicode="&#xb0;" horiz-adv-x="819" 
d="M225 1172q0 133 93 226q95 93 226 93q132 0 225 -94q94 -93 94 -225t-94 -226q-93 -93 -225 -93q-131 0 -226 93q-93 94 -93 226zM391 1172q0 -63 45 -108t108 -45t108 45t45 108t-45 108t-108 45t-108 -45t-45 -108z" />
    <glyph glyph-name="plusminus" unicode="&#xb1;" horiz-adv-x="1124" 
d="M514 356v381h-384v263h384v381h256v-381h385v-263h-385v-381h-256zM130 0v263h1025v-263h-1025z" />
    <glyph glyph-name="twosuperior" unicode="&#xb2;" horiz-adv-x="682" 
d="M437 1226l-189 23q22 115 96.5 175t195.5 60q133 0 201 -61q70 -61 70 -148q0 -62 -46 -132q-47 -72 -215 -192q-26 -18 -78 -66h284l-39 -158h-549q14 88 58 150q48 65 218 201q132 103 155 139q24 35 24 59q0 30 -21.5 49.5t-57.5 19.5q-41 0 -66.5 -26.5t-40.5 -92.5z
" />
    <glyph glyph-name="threesuperior" unicode="&#xb3;" horiz-adv-x="682" 
d="M156 944l186 18q9 -59 31.5 -81t65.5 -22q55 0 88 29.5t33 72.5q0 38 -26 60.5t-73 22.5q-14 0 -46 -5l38 150q24 -2 30 -2q60 0 91 25.5t31 67.5q0 28 -17 43q-22 19 -58 19q-37 0 -61.5 -23t-41.5 -78l-180 30q35 93 81 135q85 78 215 78q121 0 188 -59q67 -58 67 -141
q0 -43 -19 -81.5t-49 -57.5q-43 -27 -48 -31l-1 -7q5 -7 35 -34q40 -37 40 -109q0 -90 -90 -170q-88 -79 -228 -79q-122 0 -193.5 58.5t-88.5 170.5z" />
    <glyph glyph-name="acute" unicode="&#xb4;" horiz-adv-x="682" 
d="M585 1496h306l-324 -300h-191z" />
    <glyph glyph-name="mu" unicode="&#xb5;" horiz-adv-x="1180" 
d="M235 1062h287l-102 -492l-26 -120q-6 -41 -6 -79q0 -82 47 -132q48 -50 117 -50q79 0 141 62q63 64 103 255l117 556h284l-224 -1062h-256l21 99q-80 -82 -122 -102q-43 -22 -93 -22q-67 0 -113.5 31.5t-88.5 106.5l-110 -524h-287z" />
    <glyph glyph-name="paragraph" unicode="&#xb6;" 
d="M727 -403h-243v1047q-189 13 -292 122q-102 108 -102 286q0 104 40.5 191.5t110.5 139.5q72 52 164 71q55 12 219 12h597v-261h-113v-1608h-237v1608h-144v-1608z" />
    <glyph glyph-name="periodcentered" unicode="&#xb7;" horiz-adv-x="569" 
d="M147 573v281h281v-281h-281z" />
    <glyph glyph-name="cedilla" unicode="&#xb8;" horiz-adv-x="682" 
d="M14 -421l48 116l57 -1q85 0 163 24q83 26 83 78q0 32 -28 51t-88 19q-31 0 -90 -9l34 99q72 18 131 18q106 0 164.5 -46.5t58.5 -118.5q0 -85 -88 -146q-121 -88 -348 -88q-66 0 -97 4z" />
    <glyph glyph-name="onesuperior" unicode="&#xb9;" horiz-adv-x="682" 
d="M235 1141l39 155q121 47 175 75q105 55 170 115h122l-188 -759h-196l123 492q-119 -56 -245 -78z" />
    <glyph glyph-name="ordmasculine" unicode="&#xba;" horiz-adv-x="748" 
d="M148 1050q0 171 105 306t280 135q141 0 228 -87q88 -85 88 -220q0 -97 -49 -208q-47 -111 -138 -173q-88 -61 -204 -61q-140 0 -225 85t-85 223zM350 1026q0 -53 30 -84t79 -31q82 0 134 97t52 201q0 54 -29.5 84.5t-78.5 30.5q-82 0 -135 -95q-52 -94 -52 -203z" />
    <glyph glyph-name="guillemotright" unicode="&#xbb;" 
d="M679 496l-389 -425h-244l353 447l-126 459h206zM1088 497l-413 -426h-240l361 445l-133 461h202z" />
    <glyph glyph-name="onequarter" unicode="&#xbc;" horiz-adv-x="1708" 
d="M235 1139l39 155q121 47 175 75q105 57 170 115h122l-188 -758h-196l123 491q-119 -56 -245 -78zM378 -61h-174l1342 1545h174zM1377 106h-352l35 141l474 465h167l-114 -466h105l-37 -140h-105l-37 -148h-173zM1415 246l60 227l-227 -227h167z" />
    <glyph glyph-name="onehalf" unicode="&#xbd;" horiz-adv-x="1708" 
d="M235 1139l39 155q6 3 15 6q202 71 330 184h123l-189 -758h-196l123 491l-20 -9q-98 -46 -225 -69zM348 -61h-174l1342 1545h174zM1337 457l-190 23q48 235 293 235q133 0 201 -61q70 -61 70 -148q0 -61 -47 -132t-214 -192q-26 -20 -78 -66h284l-39 -158h-549
q12 87 58 149q48 66 218 201q131 105 155 140t24 59q0 30 -21.5 49t-57.5 19q-41 0 -66.5 -26t-40.5 -92z" />
    <glyph glyph-name="threequarters" unicode="&#xbe;" horiz-adv-x="1708" 
d="M155 944l186 18q9 -59 31 -81t66 -22q55 0 88 29.5t33 72.5q0 38 -26 60.5t-73 22.5q-14 0 -46 -5l38 150q24 -2 30 -2q60 0 91 25.5t31 67.5q0 28 -17 43q-22 19 -58 19q-37 0 -61.5 -23t-41.5 -78l-180 30q34 93 81 135q85 78 215 78q121 0 188 -59q67 -58 67 -141
q0 -43 -19 -81.5t-49 -57.5q-43 -27 -48 -31l-1 -7q5 -7 35 -34q40 -37 40 -109q0 -90 -90 -170q-88 -79 -228 -79q-122 0 -193.5 58.5t-88.5 170.5zM402 -61h-174l1342 1545h174zM1377 106h-352l35 141l474 465h166l-113 -466h104l-37 -140h-105l-37 -148h-172zM1414 246
l61 227l-227 -227h166z" />
    <glyph glyph-name="questiondown" unicode="&#xbf;" horiz-adv-x="1251" 
d="M909 784h-284l58 278h284zM621 696h258q-20 -134 -84 -233q-62 -96 -254 -264q-163 -141 -190 -186q-28 -44 -28 -87q0 -65 50.5 -104.5t148.5 -39.5q113 0 184 62t101 193l262 -46q-50 -194 -197 -307q-146 -113 -355 -113q-219 0 -340 109q-122 108 -122 258
q0 90 52 176q53 88 285 281q145 121 180 170q34 47 49 131z" />
    <glyph glyph-name="Agrave" unicode="&#xc0;" horiz-adv-x="1479" 
d="M1044 324h-581l-176 -324h-310l829 1466h335l238 -1466h-286zM1007 568l-85 590l-354 -590h439zM758 1809h276l128 -299h-194z" />
    <glyph glyph-name="Aacute" unicode="&#xc1;" horiz-adv-x="1479" 
d="M1044 324h-581l-176 -324h-310l829 1466h335l238 -1466h-286zM1007 568l-85 590l-354 -590h439zM1099 1811h306l-324 -300h-191z" />
    <glyph glyph-name="Acircumflex" unicode="&#xc2;" horiz-adv-x="1479" 
d="M1044 324h-581l-176 -324h-310l829 1466h335l238 -1466h-286zM1007 568l-85 590l-354 -590h439zM1011 1731l-176 -178h-236l297 301h268l122 -301h-198z" />
    <glyph glyph-name="Atilde" unicode="&#xc3;" horiz-adv-x="1479" 
d="M1044 324h-581l-176 -324h-310l829 1466h335l238 -1466h-286zM1007 568l-85 590l-354 -590h439zM764 1548h-126q27 122 64 171q54 70 134 70q54 0 186 -49q77 -28 107 -28q25 0 40 16t29 62h128q-18 -118 -73 -179t-129 -61q-46 0 -144 40t-126 40q-63 0 -90 -82z" />
    <glyph glyph-name="Adieresis" unicode="&#xc4;" horiz-adv-x="1479" 
d="M1044 324h-581l-176 -324h-310l829 1466h335l238 -1466h-286zM1007 568l-85 590l-354 -590h439zM727 1794h246l-51 -245h-246zM1148 1794h246l-51 -245h-246z" />
    <glyph glyph-name="Aring" unicode="&#xc5;" horiz-adv-x="1479" 
d="M1043 305h-581l-176 -324h-310l829 1466h335l238 -1466h-286zM1006 549l-85 590l-354 -590h439zM781 1556q0 80 56 136q57 57 137 57t136 -57q57 -56 57 -136t-57 -137q-56 -56 -136 -56q-79 0 -137 56q-56 58 -56 137zM890 1556q0 -35 24.5 -59.5t59.5 -24.5t59.5 24.5
t24.5 59.5t-24.5 60t-59.5 25t-59.5 -25t-24.5 -60z" />
    <glyph glyph-name="AE" unicode="&#xc6;" horiz-adv-x="2048" 
d="M941 367h-489l-208 -367h-310l852 1466h1383l-51 -245h-718l-70 -335h690l-52 -245h-689l-83 -396h775l-51 -245h-1056zM992 612l127 609h-179l-346 -609h398z" />
    <glyph glyph-name="Ccedilla" unicode="&#xc7;" horiz-adv-x="1479" 
d="M1146 528l304 -46q-88 -248 -267 -378q-178 -130 -417 -130q-270 0 -421 162q-151 161 -151 470q0 249 101 457q102 209 282 318q181 110 392 110q237 0 385 -128t173 -347l-289 -28q-24 126 -91.5 184.5t-183.5 58.5q-125 0 -234 -76q-109 -77 -173 -238
q-65 -162 -65 -322q0 -176 84 -272q85 -96 211 -96q117 0 214 76q98 77 146 225zM406 -415l48 116l57 -1q85 0 163 24q83 26 83 78q0 32 -28 51t-88 19q-31 0 -90 -9l34 99q72 18 131 18q106 0 164.5 -46.5t58.5 -118.5q0 -85 -88 -146q-121 -88 -348 -88q-66 0 -97 4z" />
    <glyph glyph-name="Egrave" unicode="&#xc8;" horiz-adv-x="1366" 
d="M84 0l306 1466h1087l-51 -245h-785l-70 -333h759l-51 -245h-759l-92 -398h853l-52 -245h-1145zM781 1809h276l128 -299h-194z" />
    <glyph glyph-name="Eacute" unicode="&#xc9;" horiz-adv-x="1366" 
d="M84 0l306 1466h1087l-51 -245h-785l-70 -333h759l-51 -245h-759l-92 -398h853l-52 -245h-1145zM1075 1811h306l-324 -300h-191z" />
    <glyph glyph-name="Ecircumflex" unicode="&#xca;" horiz-adv-x="1366" 
d="M84 0l306 1466h1087l-51 -245h-785l-70 -333h759l-51 -245h-759l-92 -398h853l-52 -245h-1145zM978 1731l-176 -178h-236l297 301h268l122 -301h-198z" />
    <glyph glyph-name="Edieresis" unicode="&#xcb;" horiz-adv-x="1366" 
d="M84 0l306 1466h1087l-51 -245h-785l-70 -333h759l-51 -245h-759l-92 -398h853l-52 -245h-1145zM679 1794h246l-51 -245h-246zM1100 1794h246l-51 -245h-246z" />
    <glyph glyph-name="Igrave" unicode="&#xcc;" horiz-adv-x="569" 
d="M71 0l307 1466h301l-306 -1466h-302zM380 1809h276l128 -299h-194z" />
    <glyph glyph-name="Iacute" unicode="&#xcd;" horiz-adv-x="569" 
d="M71 0l307 1466h301l-306 -1466h-302zM618 1811h306l-324 -300h-191z" />
    <glyph glyph-name="Icircumflex" unicode="&#xce;" horiz-adv-x="569" 
d="M71 0l307 1466h301l-306 -1466h-302zM638 1731l-176 -178h-236l297 301h268l122 -301h-198z" />
    <glyph glyph-name="Idieresis" unicode="&#xcf;" horiz-adv-x="569" 
d="M71 0l307 1466h301l-306 -1466h-302zM260 1749h246l-51 -245h-246zM681 1749h246l-51 -245h-246z" />
    <glyph glyph-name="Eth" unicode="&#xd0;" horiz-adv-x="1479" 
d="M89 0l137 641h-151l38 178h150l138 647h390q160 0 212 -5q264 -26 393 -237q89 -148 89 -366q0 -238 -90 -419q-89 -178 -209 -277q-119 -98 -284 -138q-96 -24 -296 -24h-517zM441 236h152q165 0 240 20q75 21 137 77q90 83 150 216q61 134 61 318q0 156 -51 234
q-50 79 -123 105q-53 18 -186 18h-170l-86 -405h313l-38 -177h-313z" />
    <glyph glyph-name="Ntilde" unicode="&#xd1;" horiz-adv-x="1479" 
d="M1256 0h-281l-396 985l-206 -985h-281l306 1466h282l397 -981l205 981h280zM782 1548h-126q27 122 64 171q54 70 134 70q54 0 186 -49q77 -28 107 -28q25 0 40 16t29 62h128q-18 -118 -73 -179t-129 -61q-46 0 -144 40t-126 40q-63 0 -90 -82z" />
    <glyph glyph-name="Ograve" unicode="&#xd2;" horiz-adv-x="1593" 
d="M179 575q0 130 39 274q105 398 419 559q160 83 362 83q273 0 439 -169q168 -170 168 -448q0 -232 -109 -449q-110 -218 -296 -334q-187 -117 -423 -117q-204 0 -344 93q-138 92 -197 230q-58 137 -58 278zM477 581q0 -150 92 -253q91 -102 242 -102q121 0 234 80
q113 81 186 244q74 165 74 319q0 173 -93 271q-93 99 -237 99q-220 0 -360 -206q-138 -205 -138 -452zM771 1809h276l128 -299h-194z" />
    <glyph glyph-name="Oacute" unicode="&#xd3;" horiz-adv-x="1593" 
d="M179 575q0 130 39 274q105 398 419 559q160 83 362 83q273 0 439 -169q168 -170 168 -448q0 -232 -109 -449q-110 -218 -296 -334q-187 -117 -423 -117q-204 0 -344 93q-138 92 -197 230q-58 137 -58 278zM477 581q0 -150 92 -253q91 -102 242 -102q121 0 234 80
q113 81 186 244q74 165 74 319q0 173 -93 271q-93 99 -237 99q-220 0 -360 -206q-138 -205 -138 -452zM1159 1811h306l-324 -300h-191z" />
    <glyph glyph-name="Ocircumflex" unicode="&#xd4;" horiz-adv-x="1593" 
d="M179 575q0 130 39 274q105 398 419 559q160 83 362 83q273 0 439 -169q168 -170 168 -448q0 -232 -109 -449q-110 -218 -296 -334q-187 -117 -423 -117q-204 0 -344 93q-138 92 -197 230q-58 137 -58 278zM477 581q0 -150 92 -253q91 -102 242 -102q121 0 234 80
q113 81 186 244q74 165 74 319q0 173 -93 271q-93 99 -237 99q-220 0 -360 -206q-138 -205 -138 -452zM1093 1731l-176 -178h-236l297 301h268l122 -301h-198z" />
    <glyph glyph-name="Otilde" unicode="&#xd5;" horiz-adv-x="1593" 
d="M179 575q0 130 39 274q105 398 419 559q160 83 362 83q273 0 439 -169q168 -170 168 -448q0 -232 -109 -449q-110 -218 -296 -334q-187 -117 -423 -117q-204 0 -344 93q-138 92 -197 230q-58 137 -58 278zM477 581q0 -150 92 -253q91 -102 242 -102q121 0 234 80
q113 81 186 244q74 165 74 319q0 173 -93 271q-93 99 -237 99q-220 0 -360 -206q-138 -205 -138 -452zM800 1548h-126q27 122 64 171q54 70 134 70q54 0 186 -49q77 -28 107 -28q25 0 40 16t29 62h128q-18 -118 -73 -179t-129 -61q-46 0 -144 40t-126 40q-63 0 -90 -82z" />
    <glyph glyph-name="Odieresis" unicode="&#xd6;" horiz-adv-x="1593" 
d="M179 575q0 130 39 274q105 398 419 559q160 83 362 83q273 0 439 -169q168 -170 168 -448q0 -232 -109 -449q-110 -218 -296 -334q-187 -117 -423 -117q-204 0 -344 93q-138 92 -197 230q-58 137 -58 278zM477 581q0 -150 92 -253q91 -102 242 -102q121 0 234 80
q113 81 186 244q74 165 74 319q0 173 -93 271q-93 99 -237 99q-220 0 -360 -206q-138 -205 -138 -452zM709 1794h246l-51 -245h-246zM1130 1794h246l-51 -245h-246z" />
    <glyph glyph-name="multiply" unicode="&#xd7;" horiz-adv-x="1196" 
d="M191 420l302 302l-304 303l186 186l304 -303l302 302l181 -182l-302 -302l305 -305l-186 -186l-305 305l-302 -302z" />
    <glyph glyph-name="Oslash" unicode="&#xd8;" horiz-adv-x="1593" 
d="M309 172q-138 166 -138 398q0 233 105 460q105 226 292 343q187 118 421 118q205 0 344 -89l140 168l138 -114l-144 -173q131 -161 131 -410q0 -237 -113 -455t-298 -330q-185 -113 -411 -113q-198 0 -329 80l-147 -177l-141 114zM506 409l646 775q-79 55 -186 55
q-125 0 -241 -83q-115 -82 -186 -245q-69 -162 -69 -320q0 -95 36 -182zM1265 1040l-638 -768q83 -55 181 -55q117 0 230 80q112 79 189 244t77 332q0 81 -39 167z" />
    <glyph glyph-name="Ugrave" unicode="&#xd9;" horiz-adv-x="1479" 
d="M391 1466h301l-166 -796l-41 -196q-4 -23 -4 -47q0 -90 65 -145t183 -55q212 0 290 163q38 79 79 275l168 801h301l-167 -802q-52 -252 -122 -387q-69 -134 -209 -218q-139 -84 -354 -84q-255 0 -392 125q-136 126 -136 323q0 44 7 89q7 48 35 182zM737 1809h276
l128 -299h-194z" />
    <glyph glyph-name="Uacute" unicode="&#xda;" horiz-adv-x="1479" 
d="M391 1466h301l-166 -796l-41 -196q-4 -23 -4 -47q0 -90 65 -145t183 -55q212 0 290 163q38 79 79 275l168 801h301l-167 -802q-52 -252 -122 -387q-69 -134 -209 -218q-139 -84 -354 -84q-255 0 -392 125q-136 126 -136 323q0 44 7 89q7 48 35 182zM1002 1811h306
l-324 -300h-191z" />
    <glyph glyph-name="Ucircumflex" unicode="&#xdb;" horiz-adv-x="1479" 
d="M391 1466h301l-166 -796l-41 -196q-4 -23 -4 -47q0 -90 65 -145t183 -55q212 0 290 163q38 79 79 275l168 801h301l-167 -802q-52 -252 -122 -387q-69 -134 -209 -218q-139 -84 -354 -84q-255 0 -392 125q-136 126 -136 323q0 44 7 89q7 48 35 182zM1017 1731l-176 -178
h-236l297 301h268l122 -301h-198z" />
    <glyph glyph-name="Udieresis" unicode="&#xdc;" horiz-adv-x="1479" 
d="M391 1466h301l-166 -796l-41 -196q-4 -23 -4 -47q0 -90 65 -145t183 -55q212 0 290 163q38 79 79 275l168 801h301l-167 -802q-52 -252 -122 -387q-69 -134 -209 -218q-139 -84 -354 -84q-255 0 -392 125q-136 126 -136 323q0 44 7 89q7 48 35 182zM664 1794h246
l-51 -245h-246zM1085 1794h246l-51 -245h-246z" />
    <glyph glyph-name="Yacute" unicode="&#xdd;" horiz-adv-x="1366" 
d="M821 0h-301l119 571l-404 895h321l182 -414q64 -147 87 -215q44 75 86 138l139 194l207 297h350l-672 -923zM1042 1811h306l-324 -300h-191z" />
    <glyph glyph-name="Thorn" unicode="&#xde;" horiz-adv-x="1366" 
d="M385 0h-302l312 1466h301l-59 -280h289q135 0 188 -10q158 -30 228 -184q37 -80 37 -178q0 -106 -43 -211q-44 -105 -106 -169q-63 -63 -136 -96q-75 -33 -195 -49q-69 -9 -263 -9h-194zM494 522h92q240 0 319 30q80 32 126 97q46 67 46 146q0 48 -25 85.5t-64 50.5
q-39 14 -190 14h-214z" />
    <glyph glyph-name="germandbls" unicode="&#xdf;" horiz-adv-x="1251" 
d="M359 0h-287l201 961q42 197 89 293q49 96 164 166q118 71 296 71q185 0 277 -80t92 -199q0 -57 -24 -111q-24 -53 -96 -138q-75 -89 -89 -116q-16 -29 -16 -54t12 -50q18 -35 94 -137q74 -100 96 -154q22 -53 22 -117q0 -89 -47 -178q-47 -88 -131 -135q-86 -47 -191 -47
q-111 0 -208 54q-97 55 -157 141l204 115q29 -41 57 -58t65 -17q52 0 86 34t34 85q0 32 -14 63q-15 33 -65 96q-90 112 -117 171q-27 60 -27 109q0 45 23 100q25 57 115 176q48 65 58 89q12 25 12 52q0 42 -27 67t-72 25q-92 0 -152 -90q-42 -63 -86 -272z" />
    <glyph glyph-name="agrave" unicode="&#xe0;" 
d="M487 761l-280 24q49 145 170 223.5t314 78.5q205 0 303 -83t98 -201q0 -48 -9 -102q-7 -49 -59 -284q-42 -190 -42 -266q0 -69 24 -151h-279q-17 58 -21 120q-62 -69 -144 -107t-166 -38q-132 0 -218 86q-86 88 -86 223q0 152 94 243q93 90 338 110q203 16 274 41
q18 60 18 96q0 48 -38.5 78t-108.5 30q-149 0 -182 -121zM760 495q-22 -7 -69 -13q-214 -25 -282 -76q-47 -36 -47 -97q0 -51 36.5 -85t94.5 -34q66 0 122 31q57 31 86 81q28 49 51 155zM520 1499h276l128 -299h-194z" />
    <glyph glyph-name="aacute" unicode="&#xe1;" 
d="M487 761l-280 24q49 145 170 223.5t314 78.5q205 0 303 -83t98 -201q0 -48 -9 -102q-7 -49 -59 -284q-42 -190 -42 -266q0 -69 24 -151h-279q-17 58 -21 120q-62 -69 -144 -107t-166 -38q-132 0 -218 86q-86 88 -86 223q0 152 94 243q93 90 338 110q203 16 274 41
q18 60 18 96q0 48 -38.5 78t-108.5 30q-149 0 -182 -121zM760 495q-22 -7 -69 -13q-214 -25 -282 -76q-47 -36 -47 -97q0 -51 36.5 -85t94.5 -34q66 0 122 31q57 31 86 81q28 49 51 155zM856 1496h306l-324 -300h-191z" />
    <glyph glyph-name="acircumflex" unicode="&#xe2;" 
d="M487 761l-280 24q49 145 170 223.5t314 78.5q205 0 303 -83t98 -201q0 -48 -9 -102q-7 -49 -59 -284q-42 -190 -42 -266q0 -69 24 -151h-279q-17 58 -21 120q-62 -69 -144 -107t-166 -38q-132 0 -218 86q-86 88 -86 223q0 152 94 243q93 90 338 110q203 16 274 41
q18 60 18 96q0 48 -38.5 78t-108.5 30q-149 0 -182 -121zM760 495q-22 -7 -69 -13q-214 -25 -282 -76q-47 -36 -47 -97q0 -51 36.5 -85t94.5 -34q66 0 122 31q57 31 86 81q28 49 51 155zM789 1375l-176 -178h-236l297 301h268l122 -301h-198z" />
    <glyph glyph-name="atilde" unicode="&#xe3;" 
d="M487 761l-280 24q49 145 170 223.5t314 78.5q205 0 303 -83t98 -201q0 -48 -9 -102q-7 -49 -59 -284q-42 -190 -42 -266q0 -69 24 -151h-279q-17 58 -21 120q-62 -69 -144 -107t-166 -38q-132 0 -218 86q-86 88 -86 223q0 152 94 243q93 90 338 110q203 16 274 41
q18 60 18 96q0 48 -38.5 78t-108.5 30q-149 0 -182 -121zM760 495q-22 -7 -69 -13q-214 -25 -282 -76q-47 -36 -47 -97q0 -51 36.5 -85t94.5 -34q66 0 122 31q57 31 86 81q28 49 51 155zM564 1213h-126q27 122 64 171q54 70 134 70q54 0 186 -49q77 -28 107 -28q25 0 40 16
t29 62h128q-18 -118 -73 -179t-129 -61q-46 0 -144 40t-126 40q-63 0 -90 -82z" />
    <glyph glyph-name="adieresis" unicode="&#xe4;" 
d="M487 761l-280 24q49 145 170 223.5t314 78.5q205 0 303 -83t98 -201q0 -48 -9 -102q-7 -49 -59 -284q-42 -190 -42 -266q0 -69 24 -151h-279q-17 58 -21 120q-62 -69 -144 -107t-166 -38q-132 0 -218 86q-86 88 -86 223q0 152 94 243q93 90 338 110q203 16 274 41
q18 60 18 96q0 48 -38.5 78t-108.5 30q-149 0 -182 -121zM760 495q-22 -7 -69 -13q-214 -25 -282 -76q-47 -36 -47 -97q0 -51 36.5 -85t94.5 -34q66 0 122 31q57 31 86 81q28 49 51 155zM467 1468h246l-51 -245h-246zM888 1468h246l-51 -245h-246z" />
    <glyph glyph-name="aring" unicode="&#xe5;" 
d="M487 761l-280 24q49 145 170 223.5t314 78.5q205 0 303 -83t98 -201q0 -48 -9 -102q-7 -49 -59 -284q-42 -190 -42 -266q0 -69 24 -151h-279q-17 58 -21 120q-62 -69 -144 -107t-166 -38q-132 0 -218 86q-86 88 -86 223q0 152 94 243q93 90 338 110q203 16 274 41
q18 60 18 96q0 48 -38.5 78t-108.5 30q-149 0 -182 -121zM760 495q-22 -7 -69 -13q-214 -25 -282 -76q-47 -36 -47 -97q0 -51 36.5 -85t94.5 -34q66 0 122 31q57 31 86 81q28 49 51 155zM538 1351q0 80 56 136q57 57 137 57q81 0 136 -57q57 -55 57 -136q0 -80 -57 -137
q-56 -56 -136 -56q-79 0 -137 56q-56 58 -56 137zM647 1351q0 -35 24.5 -59.5t59.5 -24.5t59.5 24.5t24.5 59.5t-24.5 60t-59.5 25t-59.5 -25t-24.5 -60z" />
    <glyph glyph-name="ae" unicode="&#xe6;" horiz-adv-x="1821" 
d="M1754 440h-732q5 -116 67 -183q64 -67 154 -67q145 0 221 138l258 -41q-172 -312 -490 -312q-282 0 -396 248q-185 -248 -439 -248q-153 0 -244 86q-90 87 -90 225q0 118 57 198q58 79 145 109q87 31 251 46q212 20 272 42q8 35 8 57q0 144 -161 144q-75 0 -116.5 -29
t-63.5 -95l-275 28q37 133 159 217q121 84 319 84q144 0 231 -42q63 -31 100 -91q137 133 353 133q195 0 313 -121t118 -334q0 -100 -19 -192zM1512 615q1 13 1 33q0 112 -52.5 173t-141.5 61q-93 0 -170 -68q-75 -66 -104 -199h467zM751 501q-288 -32 -375 -92
q-54 -38 -54 -97q0 -50 37.5 -84.5t98.5 -34.5q93 0 167 71q97 92 126 237z" />
    <glyph glyph-name="ccedilla" unicode="&#xe7;" 
d="M802 400l279 -45q-68 -184 -203 -282t-314 -98q-204 0 -322 121q-119 122 -119 333q0 173 72 327t217 242q146 89 318 89q187 0 300 -98q112 -97 126 -258l-273 -29q-19 173 -171 173q-86 0 -157 -64t-109 -184q-38 -125 -38 -231q0 -91 45 -143.5t116 -52.5q72 0 135 52
t98 148zM275 -413l48 116l57 -1q85 0 163 24q83 26 83 78q0 32 -28 51t-88 19q-31 0 -90 -9l34 99q72 18 131 18q106 0 164.5 -46.5t58.5 -118.5q0 -85 -88 -146q-121 -88 -348 -88q-66 0 -97 4z" />
    <glyph glyph-name="egrave" unicode="&#xe8;" 
d="M1116 442h-720q-1 -11 -1 -26q0 -106 60 -171q62 -65 148 -65q144 0 223 148l257 -43q-74 -153 -198.5 -231.5t-283.5 -78.5q-215 0 -348 135q-134 137 -134 359q0 219 121 388q165 230 471 230q195 0 310 -121q115 -119 115 -337q0 -102 -20 -187zM874 617q1 13 1 29
q0 115 -52 175.5t-143 60.5q-90 0 -160 -67q-69 -66 -95 -198h449zM508 1499h276l128 -299h-194z" />
    <glyph glyph-name="eacute" unicode="&#xe9;" 
d="M1116 442h-720q-1 -11 -1 -26q0 -106 60 -171q62 -65 148 -65q144 0 223 148l257 -43q-74 -153 -198.5 -231.5t-283.5 -78.5q-215 0 -348 135q-134 137 -134 359q0 219 121 388q165 230 471 230q195 0 310 -121q115 -119 115 -337q0 -102 -20 -187zM874 617q1 13 1 29
q0 115 -52 175.5t-143 60.5q-90 0 -160 -67q-69 -66 -95 -198h449zM845 1496h306l-324 -300h-191z" />
    <glyph glyph-name="ecircumflex" unicode="&#xea;" 
d="M1116 442h-720q-1 -11 -1 -26q0 -106 60 -171q62 -65 148 -65q144 0 223 148l257 -43q-74 -153 -198.5 -231.5t-283.5 -78.5q-215 0 -348 135q-134 137 -134 359q0 219 121 388q165 230 471 230q195 0 310 -121q115 -119 115 -337q0 -102 -20 -187zM874 617q1 13 1 29
q0 115 -52 175.5t-143 60.5q-90 0 -160 -67q-69 -66 -95 -198h449zM790 1375l-176 -178h-236l297 301h268l122 -301h-198z" />
    <glyph glyph-name="edieresis" unicode="&#xeb;" 
d="M1116 442h-720q-1 -11 -1 -26q0 -106 60 -171q62 -65 148 -65q144 0 223 148l257 -43q-74 -153 -198.5 -231.5t-283.5 -78.5q-215 0 -348 135q-134 137 -134 359q0 219 121 388q165 230 471 230q195 0 310 -121q115 -119 115 -337q0 -102 -20 -187zM874 617q1 13 1 29
q0 115 -52 175.5t-143 60.5q-90 0 -160 -67q-69 -66 -95 -198h449zM431 1468h246l-51 -245h-246zM852 1468h246l-51 -245h-246z" />
    <glyph glyph-name="igrave" unicode="&#xec;" horiz-adv-x="569" 
d="M304 1062h287l-222 -1062h-287zM307 1499h276l128 -299h-194z" />
    <glyph glyph-name="iacute" unicode="&#xed;" horiz-adv-x="569" 
d="M304 1062h287l-222 -1062h-287zM540 1496h306l-324 -300h-191z" />
    <glyph glyph-name="icircumflex" unicode="&#xee;" horiz-adv-x="569" 
d="M304 1062h287l-222 -1062h-287zM523 1375l-176 -178h-236l297 301h268l122 -301h-198z" />
    <glyph glyph-name="idieresis" unicode="&#xef;" horiz-adv-x="569" 
d="M304 1062h287l-222 -1062h-287zM188 1468h246l-51 -245h-246zM609 1468h246l-51 -245h-246z" />
    <glyph glyph-name="eth" unicode="&#xf0;" horiz-adv-x="1251" 
d="M688 1466h271l51 -75l202 75l33 -99l-179 -67q98 -177 135 -316q38 -140 38 -315q0 -257 -136 -453q-167 -242 -470 -242q-219 0 -337 97q-172 138 -172 376q0 237 138 411q160 204 414 204q95 0 167 -33q55 -25 116 -91q-34 157 -103 285l-242 -87l-35 99l224 80
q-42 68 -115 151zM943 607q0 108 -61 169q-60 62 -154 62q-152 0 -237 -139q-84 -138 -84 -278q0 -104 59 -166q60 -61 157 -61q89 0 166 63q76 62 115 170t39 180z" />
    <glyph glyph-name="ntilde" unicode="&#xf1;" horiz-adv-x="1251" 
d="M308 1062h272l-28 -138q100 87 190 125t187 38q131 0 206 -75q76 -75 76 -199q0 -56 -33 -212l-125 -601h-287l126 603q28 133 28 161q0 55 -32.5 86.5t-90.5 31.5q-63 0 -140 -53q-78 -53 -121 -140q-31 -61 -72 -253l-91 -436h-287zM607 1213h-126q27 122 64 171
q54 70 134 70q54 0 186 -49q77 -28 107 -28q25 0 40 16t29 62h128q-18 -118 -73 -179t-129 -61q-46 0 -144 40t-126 40q-63 0 -90 -82z" />
    <glyph glyph-name="ograve" unicode="&#xf2;" horiz-adv-x="1251" 
d="M124 441q0 295 166 470q167 176 438 176q236 0 367 -130q132 -129 132 -348q0 -259 -165 -446q-165 -188 -442 -188q-150 0 -266 60t-173 170q-57 109 -57 236zM942 646q0 102 -60 163q-59 62 -153 62t-166 -58t-111 -167q-40 -108 -40 -201q0 -113 62 -181
q61 -67 156 -67q118 0 198 101q114 142 114 348zM555 1499h276l128 -299h-194z" />
    <glyph glyph-name="oacute" unicode="&#xf3;" horiz-adv-x="1251" 
d="M124 441q0 295 166 470q167 176 438 176q236 0 367 -130q132 -129 132 -348q0 -259 -165 -446q-165 -188 -442 -188q-150 0 -266 60t-173 170q-57 109 -57 236zM942 646q0 102 -60 163q-59 62 -153 62t-166 -58t-111 -167q-40 -108 -40 -201q0 -113 62 -181
q61 -67 156 -67q118 0 198 101q114 142 114 348zM792 1496h306l-324 -300h-191z" />
    <glyph glyph-name="ocircumflex" unicode="&#xf4;" horiz-adv-x="1251" 
d="M124 441q0 295 166 470q167 176 438 176q236 0 367 -130q132 -129 132 -348q0 -259 -165 -446q-165 -188 -442 -188q-150 0 -266 60t-173 170q-57 109 -57 236zM942 646q0 102 -60 163q-59 62 -153 62t-166 -58t-111 -167q-40 -108 -40 -201q0 -113 62 -181
q61 -67 156 -67q118 0 198 101q114 142 114 348zM837 1375l-176 -178h-236l297 301h268l122 -301h-198z" />
    <glyph glyph-name="otilde" unicode="&#xf5;" horiz-adv-x="1251" 
d="M124 441q0 295 166 470q167 176 438 176q236 0 367 -130q132 -129 132 -348q0 -259 -165 -446q-165 -188 -442 -188q-150 0 -266 60t-173 170q-57 109 -57 236zM942 646q0 102 -60 163q-59 62 -153 62t-166 -58t-111 -167q-40 -108 -40 -201q0 -113 62 -181
q61 -67 156 -67q118 0 198 101q114 142 114 348zM566 1213h-126q27 122 64 171q54 70 134 70q54 0 186 -49q77 -28 107 -28q25 0 40 16t29 62h128q-18 -118 -73 -179t-129 -61q-46 0 -144 40t-126 40q-63 0 -90 -82z" />
    <glyph glyph-name="odieresis" unicode="&#xf6;" horiz-adv-x="1251" 
d="M124 441q0 295 166 470q167 176 438 176q236 0 367 -130q132 -129 132 -348q0 -259 -165 -446q-165 -188 -442 -188q-150 0 -266 60t-173 170q-57 109 -57 236zM942 646q0 102 -60 163q-59 62 -153 62t-166 -58t-111 -167q-40 -108 -40 -201q0 -113 62 -181
q61 -67 156 -67q118 0 198 101q114 142 114 348zM478 1468h246l-51 -245h-246zM899 1468h246l-51 -245h-246z" />
    <glyph glyph-name="divide" unicode="&#xf7;" horiz-adv-x="1124" 
d="M502 981v281h281v-281h-281zM130 592v263h1025v-263h-1025zM502 185v281h281v-281h-281z" />
    <glyph glyph-name="oslash" unicode="&#xf8;" horiz-adv-x="1251" 
d="M1002 1026l124 144l111 -94l-122 -142q109 -124 109 -326q0 -258 -165 -445q-165 -188 -441 -188q-157 0 -275 64l-127 -146l-108 96l122 141q-109 128 -109 324q0 229 126 406q161 227 479 227q166 0 276 -61zM846 845q-53 34 -125 34q-119 0 -210 -107
q-46 -55 -78 -134q-44 -111 -44 -213q0 -47 15 -93zM937 728l-442 -512q55 -31 125 -31q94 0 169.5 59.5t119.5 172.5q45 115 45 214q0 44 -17 97z" />
    <glyph glyph-name="ugrave" unicode="&#xf9;" horiz-adv-x="1251" 
d="M302 1062h287l-131 -629q-24 -113 -24 -141q0 -46 34 -79t87 -33q74 0 151 58q83 64 128 168q17 42 41 150l106 506h287l-222 -1062h-268l30 144q-175 -169 -383 -169q-131 0 -206 75t-75 201q0 58 34 219zM590 1499h276l128 -299h-194z" />
    <glyph glyph-name="uacute" unicode="&#xfa;" horiz-adv-x="1251" 
d="M302 1062h287l-131 -629q-24 -113 -24 -141q0 -46 34 -79t87 -33q74 0 151 58q83 64 128 168q17 42 41 150l106 506h287l-222 -1062h-268l30 144q-175 -169 -383 -169q-131 0 -206 75t-75 201q0 58 34 219zM839 1496h306l-324 -300h-191z" />
    <glyph glyph-name="ucircumflex" unicode="&#xfb;" horiz-adv-x="1251" 
d="M302 1062h287l-131 -629q-24 -113 -24 -141q0 -46 34 -79t87 -33q74 0 151 58q83 64 128 168q17 42 41 150l106 506h287l-222 -1062h-268l30 144q-175 -169 -383 -169q-131 0 -206 75t-75 201q0 58 34 219zM848 1375l-176 -178h-236l297 301h268l122 -301h-198z" />
    <glyph glyph-name="udieresis" unicode="&#xfc;" horiz-adv-x="1251" 
d="M302 1062h287l-131 -629q-24 -113 -24 -141q0 -46 34 -79t87 -33q74 0 151 58q83 64 128 168q17 42 41 150l106 506h287l-222 -1062h-268l30 144q-175 -169 -383 -169q-131 0 -206 75t-75 201q0 58 34 219zM537 1468h246l-51 -245h-246zM958 1468h246l-51 -245h-246z" />
    <glyph glyph-name="yacute" unicode="&#xfd;" 
d="M171 1062h286l72 -529q27 -204 30 -286q53 156 154 344l254 471h304l-656 -1166q-78 -140 -128 -203q-46 -58 -112 -91q-64 -33 -157 -33q-89 0 -205 32l25 214q53 -15 101 -15q131 0 217 200zM761 1496h306l-324 -300h-191z" />
    <glyph glyph-name="thorn" unicode="&#xfe;" horiz-adv-x="1251" 
d="M379 1466h287l-102 -491q145 112 300 112q168 0 268 -115q102 -116 102 -342q0 -289 -175 -486q-148 -169 -355 -169q-211 0 -319 171l-117 -551h-287zM462 453q0 -124 60 -193q62 -68 143 -68q71 0 137 51q65 50 109 171t44 222q0 119 -57 182q-57 64 -144 64
q-84 0 -150.5 -59t-104.5 -171q-37 -111 -37 -199z" />
    <glyph glyph-name="ydieresis" unicode="&#xff;" 
d="M171 1062h286l72 -529q27 -204 30 -286q53 156 154 344l254 471h304l-656 -1166q-78 -140 -128 -203q-46 -58 -112 -91q-64 -33 -157 -33q-89 0 -205 32l25 214q53 -15 101 -15q131 0 217 200zM448 1468h246l-51 -245h-246zM869 1468h246l-51 -245h-246z" />
    <glyph glyph-name="dotlessi" unicode="&#x131;" horiz-adv-x="569" 
d="M304 1062h287l-222 -1062h-287z" />
    <glyph glyph-name="OE" unicode="&#x152;" horiz-adv-x="2048" 
d="M1256 1466h953l-51 -245h-667l-68 -327h647l-51 -245h-648l-84 -404h734l-51 -245h-1021l25 118q-64 -75 -139 -109t-179 -34q-218 0 -367 159q-148 160 -148 440q0 259 100 478q101 222 276 330q176 109 353 109q114 0 209 -51q94 -49 142 -138zM411 541q0 -152 82 -237
q83 -86 215 -86q185 0 285 169q47 80 85 235q52 211 52 343q0 130 -74 207t-192 77q-131 0 -234 -94t-167 -289q-52 -160 -52 -325z" />
    <glyph glyph-name="oe" unicode="&#x153;" horiz-adv-x="1933" 
d="M1908 439h-716q-2 -125 58 -192t148 -67q148 0 225 149l255 -45q-171 -309 -482 -309q-236 0 -370 159q-159 -159 -409 -159q-151 0 -265 58.5t-173 170.5q-60 114 -60 249q0 161 71 314q70 151 208 236q138 84 338 84q235 0 373 -148q170 148 391 148q202 0 317 -121
q116 -121 116 -340q0 -106 -25 -187zM1668 616q1 13 1 35q0 112 -51.5 171.5t-139.5 59.5q-192 0 -257 -266h447zM405 415q0 -97 60 -159q61 -61 154 -61q144 0 228 131q84 132 84 295q0 121 -61 185q-60 65 -153 65q-123 0 -199 -97q-113 -143 -113 -359z" />
    <glyph glyph-name="Scaron" unicode="&#x160;" horiz-adv-x="1366" 
d="M130 475l287 15q6 -136 47 -185q66 -78 244 -78q147 0 214 53q66 52 66 128q0 65 -54 110q-38 34 -209 107q-169 73 -249 123q-168 108 -168 314q0 185 134 307t388 122q259 0 399 -121q143 -122 156 -322l-289 -13q-23 217 -268 217q-119 0 -175.5 -42t-56.5 -113
q0 -64 49 -104q49 -41 217 -115q253 -109 322 -177q103 -100 103 -257q0 -194 -154 -332q-154 -137 -427 -137q-188 0 -328 63q-138 64 -195 177t-53 260zM891 1650l176 178h236l-297 -301h-268l-122 301h198z" />
    <glyph glyph-name="scaron" unicode="&#x161;" 
d="M45 297l278 44q37 -88 92 -125q55 -36 150 -36q98 0 157 44q41 30 41 73q0 29 -21 52q-23 23 -119 54q-259 85 -322 136q-97 78 -97 204t94 217q130 127 389 127q205 0 310 -75q104 -74 133 -203l-265 -46q-21 58 -68 87q-64 39 -154 39q-85 0 -127 -28t-42 -71
q0 -41 40 -66q23 -15 161 -56q211 -62 281 -120q100 -82 100 -200q0 -151 -127 -262t-358 -111q-230 0 -356 84q-125 86 -170 238zM716 1320l176 178h236l-297 -301h-268l-122 301h198z" />
    <glyph glyph-name="Ydieresis" unicode="&#x178;" horiz-adv-x="1366" 
d="M821 0h-301l119 571l-404 895h321l182 -414q64 -147 87 -215q44 75 86 138l139 194l207 297h350l-672 -923zM636 1794h246l-51 -245h-246zM1057 1794h246l-51 -245h-246z" />
    <glyph glyph-name="florin" unicode="&#x192;" 
d="M276 851l36 211h202l16 89q28 152 48 196q31 64 88 100q74 44 209 44q133 0 267 -41l-54 -226q-93 28 -158 28q-54 0 -80 -24q-27 -25 -43 -110l-11 -56h208l-37 -211h-205l-173 -978q-19 -117 -53 -177q-30 -56 -97 -92q-65 -35 -179 -35q-157 0 -280 40l57 221
q112 -23 167 -23q61 0 87 38q21 30 37 133l150 873h-202z" />
    <glyph glyph-name="circumflex" unicode="&#x2c6;" horiz-adv-x="682" 
d="M527 1375l-176 -178h-236l297 301h268l122 -301h-198z" />
    <glyph glyph-name="caron" unicode="&#x2c7;" horiz-adv-x="682" 
d="M499 1320l176 178h236l-297 -301h-268l-122 301h198z" />
    <glyph glyph-name="breve" unicode="&#x2d8;" horiz-adv-x="682" 
d="M173 1488h139q23 -79 60.5 -112t98.5 -33q119 0 197 145h132q-40 -136 -133 -214q-91 -76 -205 -76q-119 0 -194 73.5t-95 216.5z" />
    <glyph glyph-name="dotaccent" unicode="&#x2d9;" horiz-adv-x="682" 
d="M389 1490h287l-55 -263h-287z" />
    <glyph glyph-name="ring" unicode="&#x2da;" horiz-adv-x="682" 
d="M308 1351q0 80 56 136q57 57 137 57q81 0 136 -57q57 -55 57 -136q0 -80 -57 -137q-56 -56 -136 -56q-79 0 -137 56q-56 58 -56 137zM417 1351q0 -35 24.5 -59.5t59.5 -24.5t59.5 24.5t24.5 59.5t-24.5 60t-59.5 25t-59.5 -25t-24.5 -60z" />
    <glyph glyph-name="ogonek" unicode="&#x2db;" horiz-adv-x="682" 
d="M554 -236l-27 -128q-42 -25 -108 -43q-64 -18 -112 -18q-85 0 -132.5 48.5t-47.5 137.5q0 61 20 136q22 77 46 122h142q-52 -125 -52 -198q0 -44 25.5 -69.5t71.5 -25.5q66 0 174 38z" />
    <glyph glyph-name="tilde" unicode="&#x2dc;" horiz-adv-x="682" 
d="M316 1213h-126q27 122 64 171q54 70 134 70q54 0 186 -49q77 -28 107 -28q25 0 40 16t29 62h128q-18 -118 -73 -179t-129 -61q-46 0 -144 40t-126 40q-63 0 -90 -82z" />
    <glyph glyph-name="hungarumlaut" unicode="&#x2dd;" horiz-adv-x="682" 
d="M665 1491h290l-329 -297h-164zM266 1491h297l-336 -297h-159z" />
    <glyph glyph-name="pi" unicode="&#x3c0;" horiz-adv-x="1124" 
d="M209 1063h996l-58 -201h-99l-261 -862h-286l258 858h-210l-260 -858h-289l261 856h-112z" />
    <glyph glyph-name="endash" unicode="&#x2013;" 
d="M-4 426v210h1139v-210h-1139z" />
    <glyph glyph-name="emdash" unicode="&#x2014;" horiz-adv-x="2048" 
d="M0 426v210h2048v-210h-2048z" />
    <glyph glyph-name="quoteleft" unicode="&#x2018;" horiz-adv-x="569" 
d="M513 887h-290l48 229q42 198 132 281q91 83 234 86l-28 -133q-73 -17 -111.5 -58.5t-58.5 -127.5h132z" />
    <glyph glyph-name="quoteright" unicode="&#x2019;" horiz-adv-x="569" 
d="M378 1466h289l-48 -229q-41 -199 -132 -282q-89 -82 -234 -85l28 133q72 17 111 57q40 43 59 128h-132z" />
    <glyph glyph-name="quotesinglbase" unicode="&#x201a;" horiz-adv-x="569" 
d="M146 277h289l-48 -229q-40 -197 -132 -280q-91 -83 -234 -86l28 133q73 16 112 58t58 127h-132z" />
    <glyph glyph-name="quotedblleft" unicode="&#x201c;" horiz-adv-x="1024" 
d="M1028 887h-289l47 229q42 198 132 281q92 83 235 86l-28 -133q-71 -16 -111 -58q-39 -40 -60 -128h132zM546 887h-290l48 229q42 198 132 281q91 83 234 86l-28 -133q-73 -17 -111.5 -58.5t-58.5 -127.5h132z" />
    <glyph glyph-name="quotedblright" unicode="&#x201d;" horiz-adv-x="1024" 
d="M388 1466h289l-48 -229q-41 -199 -132 -282q-89 -82 -234 -85l28 133q72 17 111 57q40 43 59 128h-132zM870 1466h290l-48 -229q-42 -200 -133 -282q-89 -82 -233 -85l27 133q73 16 112 58t59 127h-132z" />
    <glyph glyph-name="quotedblbase" unicode="&#x201e;" horiz-adv-x="1024" 
d="M132 277h289l-48 -229q-40 -197 -132 -280q-91 -83 -234 -86l28 133q73 16 112 58t58 127h-132zM614 277h290l-48 -229q-42 -198 -133 -280q-91 -83 -233 -86l27 133q73 16 112 58t59 127h-132z" />
    <glyph glyph-name="dagger" unicode="&#x2020;" 
d="M812 830l-246 -1180h-270l246 1180h-369l47 223h369l82 393h270l-82 -393h358l-47 -223h-358z" />
    <glyph glyph-name="daggerdbl" unicode="&#x2021;" 
d="M825 880l-139 -665h357l-47 -223h-357l-71 -342h-271l72 342h-371l47 223h370l139 665h-370l46 223h371l72 343h270l-72 -343h357l-46 -223h-357z" />
    <glyph glyph-name="bullet" unicode="&#x2022;" horiz-adv-x="717" 
d="M757 724q0 -123 -87 -210q-86 -86 -208 -86q-123 0 -210 87q-86 88 -86 209q0 122 86 208q87 87 210 87q122 0 208 -86q87 -85 87 -209z" />
    <glyph glyph-name="ellipsis" unicode="&#x2026;" horiz-adv-x="2048" 
d="M248 277h284l-58 -277h-284zM911 277h284l-58 -277h-284zM1575 277h283l-58 -277h-283z" />
    <glyph glyph-name="perthousand" unicode="&#x2030;" horiz-adv-x="2048" 
d="M139 1004q0 64 27 166q27 103 76 176q51 75 112 110t142 35q116 0 184 -73.5t68 -202.5q0 -103 -50 -235q-49 -130 -136 -194q-85 -64 -184 -64q-104 0 -172 72q-67 71 -67 210zM325 991q0 -99 67 -99q35 0 64 29q36 39 66 144q31 103 31 170q0 40 -20 63t-49 23
q-34 0 -63 -32q-39 -44 -68 -148q-28 -100 -28 -150zM389 -58h-198l948 1549h205zM793 229q0 64 27 166q27 103 76 176q51 75 112 110t142 35q114 0 183 -73t69 -203q0 -103 -50 -235q-49 -130 -136 -194q-85 -64 -184 -64q-106 0 -173 72q-66 72 -66 210zM978 216
q0 -54 17 -76.5t51 -22.5q36 0 63 29q37 38 67 144q30 105 30 170q0 40 -19.5 63t-49.5 23q-33 0 -62 -32q-41 -45 -69 -148q-28 -100 -28 -150zM1483 229q0 64 27 166q27 103 76 176q51 75 112 110t142 35q114 0 183 -73t69 -203q0 -103 -50 -235q-49 -130 -136 -194
q-85 -64 -184 -64q-106 0 -173 72q-66 72 -66 210zM1668 216q0 -99 68 -99q36 0 63 29q37 38 67 144q31 103 31 170q0 40 -20 63t-50 23q-33 0 -62 -32q-41 -45 -69 -148q-28 -100 -28 -150z" />
    <glyph glyph-name="guilsinglleft" unicode="&#x2039;" horiz-adv-x="682" 
d="M122 552l412 425h241l-361 -444l132 -462h-201z" />
    <glyph glyph-name="guilsinglright" unicode="&#x203a;" horiz-adv-x="682" 
d="M653 496l-389 -425h-244l353 447l-126 459h206z" />
    <glyph glyph-name="fraction" unicode="&#x2044;" horiz-adv-x="342" 
d="M-335 -61h-174l1342 1545h174z" />
    <glyph glyph-name="trademark" unicode="&#x2122;" horiz-adv-x="2048" 
d="M549 647v677h-253v142h665v-142h-246v-677h-166zM1060 647v819h259l149 -564l150 564h259v-819h-158v653l-177 -653h-150l-176 653v-653h-156z" />
    <glyph glyph-name="Omega" unicode="&#x2126;" horiz-adv-x="1573" 
d="M542 206q-117 50 -185 112q-200 178 -200 493q0 310 191 501q193 191 509 191q233 0 389.5 -79t249.5 -245q94 -164 94 -366q0 -203 -94 -361q-94 -159 -288 -244l330 23h72v-231h-642v243q98 47 153 105q75 79 114 193t39 243q0 248 -115 373q-114 127 -292 127
q-170 0 -285 -130q-114 -129 -114 -365q0 -136 43.5 -253t124.5 -198q51 -51 144 -95v-243h-645v230h98z" />
    <glyph glyph-name="partialdiff" unicode="&#x2202;" horiz-adv-x="1012" 
d="M439 1123l-137 84q51 139 148.5 211.5t221.5 72.5q146 0 234 -100q131 -146 131 -448q0 -260 -83 -506q-82 -244 -230 -354q-147 -108 -309 -108q-138 0 -225 92q-86 92 -86 262q0 157 87 303q86 144 266 230q176 85 429 80q-2 201 -74 296q-54 71 -145 71
q-69 0 -121 -40q-51 -39 -107 -146zM874 758q-19 1 -44 1q-136 0 -256 -56q-119 -56 -180 -158q-61 -103 -61 -207q0 -78 42 -126q42 -47 99 -47q120 0 217 115q141 165 183 478z" />
    <glyph glyph-name="product" unicode="&#x220f;" horiz-adv-x="1686" 
d="M161 1491h1362v-1922h-191v1748h-978v-1748h-193v1922z" />
    <glyph glyph-name="summation" unicode="&#x2211;" horiz-adv-x="1460" 
d="M219 1491h1237v-164h-988l607 -775l-649 -822h1040v-161h-1264v187l620 788l-603 772v175z" />
    <glyph glyph-name="radical" unicode="&#x221a;" horiz-adv-x="1124" 
d="M1050 1869h74l-312 -1947l-496 1021l-198 -91l-34 64l301 151l405 -823z" />
    <glyph glyph-name="infinity" unicode="&#x221e;" horiz-adv-x="1460" 
d="M761 843q74 120 150.5 174t172.5 54q132 0 219 -94q88 -92 88 -255q0 -162 -88 -256q-87 -93 -219 -93q-95 0 -172 53.5t-151 174.5q-61 -85 -138 -128q-79 -44 -149 -44q-102 0 -172 78q-70 79 -70 215q0 137 70 214q70 78 172 78q70 0 149 -44q77 -43 138 -127z
M854 724q85 -131 118 -158q52 -45 115 -45q76 0 117 59t41 146q0 93 -45 146q-45 52 -110 52q-50 0 -103 -36q-49 -35 -133 -164zM675 726q-101 141 -190 141q-48 0 -80.5 -38t-32.5 -102q0 -66 32 -105t81 -39q39 0 70 21q53 35 120 122z" />
    <glyph glyph-name="integral" unicode="&#x222b;" horiz-adv-x="561" 
d="M201 948q18 544 23 598q22 186 80 251q58 66 131 66q50 0 87 -34q38 -33 38 -73q0 -47 -26 -75.5t-66 -28.5q-36 0 -76 36q-23 20 -40 20q-40 0 -40 -64q0 -41 9 -145q37 -404 37 -665q0 -83 -16 -588q-8 -296 -90 -399q-54 -67 -134 -67q-52 0 -85 34t-33 87
q0 45 25.5 72t64.5 27q40 0 69 -32t49 -32q39 0 39 61q0 42 -9 120q-37 311 -37 831z" />
    <glyph glyph-name="approxequal" unicode="&#x2248;" horiz-adv-x="1124" 
d="M111 761v258q127 138 296 138q65 0 116 -13q57 -13 166 -58q107 -43 149 -55q34 -10 62 -10q60 0 133.5 36.5t139.5 108.5v-270q-46 -47 -129 -91q-83 -42 -170 -42q-50 0 -98 12q-46 12 -150 57q-153 67 -242 67q-140 0 -273 -138zM111 276v259q128 137 296 137
q65 0 116 -13q55 -13 166 -57q107 -43 149 -55q34 -10 62 -10q60 0 133.5 36.5t139.5 107.5v-270q-46 -47 -129 -91q-83 -42 -170 -42q-50 0 -98 12q-50 15 -150 58q-153 67 -242 67q-140 0 -273 -139z" />
    <glyph glyph-name="notequal" unicode="&#x2260;" horiz-adv-x="1124" 
d="M538 631l68 185h-441v258h537l148 398h211l-148 -398h277v-258h-374l-69 -185h443v-259h-540l-149 -397h-207l148 397h-277v259h373z" />
    <glyph glyph-name="lessequal" unicode="&#x2264;" horiz-adv-x="1124" 
d="M1135 336l-1005 437v242l1005 435v-285l-701 -268l701 -279v-282zM130 0v263h1005v-263h-1005z" />
    <glyph glyph-name="greaterequal" unicode="&#x2265;" horiz-adv-x="1124" 
d="M130 338v282l702 277l-702 272v281l1005 -434v-241zM130 0v263h1005v-263h-1005z" />
    <glyph glyph-name="lozenge" unicode="&#x25ca;" horiz-adv-x="1012" 
d="M639 1422l418 -713l-418 -709h-111l-391 709l391 713h111zM585 1325l-340 -616l340 -615l359 615z" />
    <glyph glyph-name="CR" unicode="&#xe000;" horiz-adv-x="569" 
 />
    <glyph glyph-name="NULL" unicode="&#xe001;" horiz-adv-x="0" 
 />
    <glyph glyph-name="increment" unicode="&#xe002;" horiz-adv-x="1253" 
d="M1286 0h-1200l628 1387zM1050 82l-399 967l-440 -967h839z" />
    </font>
</defs>
</svg>
