<?xml version="1.0" standalone="no"?>
<!DOCTYPE svg PUBLIC "-//W3C//DTD SVG 1.1//EN" "http://www.w3.org/Graphics/SVG/1.1/DTD/svg11.dtd" >
<svg xmlns="http://www.w3.org/2000/svg" xmlns:xlink="http://www.w3.org/1999/xlink" version="1.1">
<metadata>
Created by FontForge 20170731 at Wed May 12 14:15:11 2021
 By Aleksey,,,
Copyright (c) 1990 Adobe Systems Incorporated. All rights reservedArial registered is a trademark of The Monotype Corporation plc
</metadata>
<defs>
<font id="ArialMT-Light" horiz-adv-x="1138" >
  <font-face 
    font-family="Arial"
    font-weight="300"
    font-stretch="normal"
    units-per-em="2048"
    panose-1="2 0 5 3 4 0 0 2 0 4"
    ascent="1638"
    descent="-410"
    x-height="1061"
    cap-height="1466"
    bbox="-434 -431.5 2060 1882"
    underline-thickness="102"
    underline-position="-307"
    unicode-range="U+0020-FB02"
  />
<missing-glyph horiz-adv-x="569" 
 />
    <glyph glyph-name="fi" unicode="fi" horiz-adv-x="1024" 
d="M31 1061h170v113q0 103 13.5 152.5t43.5 82.5q73 82 201 82q47 0 155 -25l-22 -100q-76 10 -105 10q-55 0 -89 -15t-49.5 -48.5t-20 -67t-4.5 -90.5v-94h223v-92h-223v-969h-123v969h-170v92zM735 1061h123v-1061h-123v1061zM735 1466h123v-188h-123v188z" />
    <glyph glyph-name="fl" unicode="fl" horiz-adv-x="1024" 
d="M31 1061h170v113q0 103 13.5 152.5t43.5 82.5q73 82 201 82q47 0 155 -25l-22 -100q-76 10 -105 10q-55 0 -89 -15t-49.5 -48.5t-20 -67t-4.5 -90.5v-94h223v-92h-223v-969h-123v969h-170v92zM735 1466h123v-1466h-123v1466z" />
    <glyph glyph-name=".notdef" horiz-adv-x="569" 
 />
    <glyph glyph-name=".null" horiz-adv-x="0" 
 />
    <glyph glyph-name="nonmarkingreturn" horiz-adv-x="682" 
 />
    <glyph glyph-name="space" unicode=" " horiz-adv-x="569" 
 />
    <glyph glyph-name="exclam" unicode="!" horiz-adv-x="681" 
d="M264 1466h152v-329l-35 -775h-82l-35 775v329zM254 195h174v-195h-174v195z" />
    <glyph glyph-name="quotedbl" unicode="&#x22;" horiz-adv-x="569" 
d="M76 1466h147v-239l-26 -269h-91l-30 269v239zM346 1466h148v-239l-27 -269h-90l-31 269v239z" />
    <glyph glyph-name="numbersign" unicode="#" 
d="M428 1430h94l-86 -418h387l90 418h95l-86 -418h165v-92h-184l-80 -398h264v-92h-288l-90 -416h-91l91 416h-394l-90 -416h-90l90 416h-174v92h191l82 398h-273v92h291zM807 920h-391l-82 -398h391z" />
    <glyph glyph-name="dollar" unicode="$" 
d="M993 1143l-127 -19q-13 61 -37 108t-49.5 74t-58.5 45.5t-59 26t-56 11.5v-578q43 -13 66.5 -20t64.5 -22t65.5 -27t59.5 -32t56.5 -40.5t45.5 -49t37 -60t22 -72.5t9 -87q0 -120 -55.5 -217t-140.5 -145q-87 -49 -230 -64v-182h-76v182q-79 3 -144.5 23.5t-109 47.5
t-78.5 69.5t-53.5 76t-33.5 80.5t-19.5 69.5t-9.5 55.5l123 17q6 -28 11 -47t17.5 -55t27 -61.5t40.5 -58t56.5 -54t75 -38.5t97.5 -22v627l-45 12q-41 11 -69 19.5t-70 26t-70.5 35.5t-61 48t-52 64.5t-32.5 83.5t-13 106q0 25 2.5 50.5t12.5 63.5t26.5 71.5t48 69.5
t73.5 63t106.5 47t143.5 26v88h76v-88q54 -5 96 -14.5t89.5 -33.5t83 -60t67 -97t51.5 -143zM530 834v555q-59 -5 -107 -21.5t-77.5 -38t-51 -51t-31.5 -53.5t-16 -53t-6.5 -41.5t-0.5 -26.5q0 -57 19.5 -101t45 -70t71 -47.5t74.5 -30t80 -21.5zM606 684v-606
q60 8 108.5 27.5t79 42.5t53.5 53t34.5 55.5t18 54.5t8 45.5t1.5 32.5q0 34 -6 63t-14.5 51.5t-25 43t-30.5 35t-39 28.5t-41.5 22.5t-47.5 19.5t-48 16.5t-51 15.5z" />
    <glyph glyph-name="percent" unicode="%" horiz-adv-x="1820" 
d="M1579 332q0 57 -8.5 105.5t-28.5 93.5t-59 71.5t-94 26.5t-94 -26t-58.5 -72t-28 -94t-8.5 -105q0 -55 8.5 -103t28 -94t58.5 -73t94 -27t94 27t59 73t28.5 94.5t8.5 102.5zM1286 1491h105l-856 -1544h-105zM621 1106q0 56 -8.5 105t-28.5 94t-59.5 71.5t-94.5 26.5
q-44 0 -78.5 -18t-54.5 -46.5t-33 -69t-17.5 -79.5t-4.5 -84q0 -55 8 -102.5t27.5 -94t58.5 -73.5t94 -27q44 0 78.5 18.5t55.5 48t34 70t18 79t5 81.5zM1690 332q0 -189 -85 -287t-216 -98t-215 98t-84 287q0 188 84.5 286.5t214.5 98.5q131 0 216 -98.5t85 -286.5z
M731 1106q0 -189 -85 -287t-216 -98t-215 98t-84 287q0 188 84.5 286.5t214.5 98.5q131 0 216 -98.5t85 -286.5z" />
    <glyph glyph-name="ampersand" unicode="&#x26;" horiz-adv-x="1366" 
d="M1083 680l127 -27q-39 -117 -66.5 -179.5t-78.5 -151.5q8 -12 31 -35q68 -72 101.5 -104.5t109.5 -98.5l-86 -109q-54 42 -122 109.5t-112 118.5q-26 -36 -44 -58t-57 -58.5t-78 -57.5t-99 -37.5t-127 -16.5q-107 0 -197 37.5t-148 98.5t-90 137t-32 155q0 67 22 126.5
t52 100t82.5 82.5t89.5 65t98 57q-98 127 -130 199.5t-32 125.5q0 58 22 115.5t62.5 106.5t107 79.5t146.5 30.5q82 0 147 -30t103.5 -77.5t58 -102.5t19.5 -110q0 -202 -316 -362q12 -18 29 -35q65 -82 295 -352q36 67 52 104t60 154zM526 741q-54 -30 -87.5 -51t-73.5 -52
t-62 -60t-37.5 -68.5t-15.5 -83.5q0 -127 93.5 -231.5t227.5 -104.5q53 0 102.5 18t81.5 39.5t66 57t46 52t30 42.5q-57 59 -185.5 212.5t-185.5 229.5zM575 901q58 30 96.5 54.5t78 58.5t59.5 74.5t20 87.5q0 85 -56 142.5t-136 57.5q-86 0 -146.5 -59t-60.5 -139
q0 -39 17.5 -81t38 -72.5t65.5 -90.5q20 -25 24 -33z" />
    <glyph glyph-name="quotesingle" unicode="'" horiz-adv-x="454" 
d="M154 1466h147v-239l-27 -269h-90l-30 269v239z" />
    <glyph glyph-name="parenleft" unicode="(" horiz-adv-x="681" 
d="M504 1491h90q-307 -487 -307 -977q0 -248 82 -488t231 -456h-96q-53 72 -94 135t-91.5 160.5t-83.5 191.5t-56 217t-23 248q0 238 78 465.5t270 503.5z" />
    <glyph glyph-name="parenright" unicode=")" horiz-adv-x="681" 
d="M178 -430h-90q307 487 307 977q0 248 -82 488t-231 456h96q53 -72 94 -135t91.5 -160.5t83.5 -191.5t56 -217t23 -248q0 -238 -78 -465.5t-270 -503.5z" />
    <glyph glyph-name="asterisk" unicode="*" horiz-adv-x="796" 
d="M340 1491h115l-9 -137l-10 -135l121 55l123 49l35 -104l-127 -35l-125 -31l84 -102l88 -103l-88 -65l-76 110l-72 117l-69 -117l-70 -110l-90 65l82 103l88 102l-131 31l-127 35l37 104l121 -49l122 -55l-10 135z" />
    <glyph glyph-name="plus" unicode="+" horiz-adv-x="1351" 
d="M629 1257h94v-489h489v-94h-489v-490h-94v490h-490v94h490v489z" />
    <glyph glyph-name="comma" unicode="," horiz-adv-x="569" 
d="M199 195h174v-195q0 -88 -26.5 -151.5t-104.5 -120.5l-54 71q56 43 73 80t18 121h-80v195z" />
    <glyph glyph-name="hyphen" unicode="-" horiz-adv-x="681" 
d="M74 594h534v-129h-534v129z" />
    <glyph glyph-name="period" unicode="." horiz-adv-x="569" 
d="M197 195h176v-195h-176v195z" />
    <glyph glyph-name="slash" unicode="/" horiz-adv-x="569" 
d="M475 1466h94l-473 -1503h-96z" />
    <glyph glyph-name="zero" unicode="0" 
d="M1032 719q0 -53 -1.5 -96.5t-6.5 -105t-14 -111t-26 -107.5t-40.5 -102.5t-59 -87.5t-79.5 -71.5t-104.5 -45.5t-131.5 -17q-465 0 -465 717q0 147 11.5 256.5t34 179t43 108.5t51.5 79q36 48 78.5 79.5t86.5 46t80.5 20t79.5 5.5q73 0 134 -18.5t105.5 -47.5t80 -75
t58.5 -91t39.5 -105.5t25 -108.5t13.5 -110.5t6 -101t1 -89.5zM901 721q0 305 -63 455q-79 188 -269 188q-212 0 -286 -225q-21 -60 -32 -142t-13 -140t-2 -146q0 -204 19 -305.5t60 -180.5q24 -46 54 -76.5t65 -45t67 -20t72 -5.5q193 0 271 209q57 149 57 434z" />
    <glyph glyph-name="one" unicode="1" 
d="M647 1466h84v-1466h-123v1225q-102 -96 -187.5 -146.5t-184.5 -89.5v111q105 57 179 108t118 97.5t67 80t47 80.5z" />
    <glyph glyph-name="two" unicode="2" 
d="M1024 0h-946q12 104 60.5 191.5t128.5 166t225 191.5q120 93 186 150.5t119.5 119.5t73.5 116.5t20 121.5q0 56 -19.5 109.5t-57 98t-101 72t-142.5 27.5q-57 0 -104.5 -14t-79 -33.5t-57.5 -51.5t-40 -57.5t-25 -62t-15 -55.5t-8 -46l-131 17q11 100 50.5 176.5
t89.5 118.5t113.5 68t113.5 34t100 8q206 0 326 -117.5t120 -287.5q0 -46 -6.5 -86.5t-24.5 -80t-35.5 -71t-53.5 -71t-63.5 -67t-81.5 -72t-92 -73.5t-108 -83q-83 -64 -139.5 -114t-91 -92.5t-49 -65.5t-37.5 -66h782v-119z" />
    <glyph glyph-name="three" unicode="3" 
d="M102 371l121 18q7 -29 11 -44.5t17.5 -53t28 -61t41.5 -55.5t58.5 -51t78 -32.5t101.5 -13.5q82 0 148.5 31t107 81t62.5 111t22 125q0 136 -88 220.5t-236 84.5q-49 0 -131 -18l15 110q135 0 209 33q74 34 120 96t46 150q0 115 -79 188.5t-198 73.5q-239 0 -311 -289
l-125 23q43 176 151 272t283 96q173 0 291.5 -105t118.5 -267q0 -59 -17.5 -109t-39 -79.5t-56.5 -57t-54 -37.5t-48 -23v-4q129 -26 207.5 -111t78.5 -243q0 -200 -132 -327.5t-345 -127.5q-77 0 -142 17t-108.5 41.5t-79.5 64t-55.5 71t-36.5 77.5t-22.5 68t-12.5 57z" />
    <glyph glyph-name="four" unicode="4" 
d="M719 365h-678v112l702 989h99v-991h200v-110h-200v-365h-123v365zM162 475h557v787h-4z" />
    <glyph glyph-name="five" unicode="5" 
d="M274 1446h705v-111h-612l-93 -504q33 23 54.5 35.5t65.5 34t95 32.5t107 11q190 0 319 -135.5t129 -327.5q0 -70 -18.5 -140t-59 -136t-97 -117t-139.5 -82t-181 -31q-72 0 -133 17.5t-103 42.5t-78 64.5t-56 71t-37.5 75.5t-23.5 65t-14 51l127 15q12 -57 34 -105.5
t60.5 -94.5t101 -72.5t142.5 -26.5q151 0 247.5 113.5t96.5 277.5q0 160 -94 262.5t-241 102.5q-50 0 -96.5 -11.5t-77 -25.5t-67 -40.5t-52 -41t-45.5 -43.5l-105 14z" />
    <glyph glyph-name="six" unicode="6" 
d="M1008 1128l-125 -14q-7 32 -15 56.5t-29.5 63.5t-48.5 65t-75 45.5t-107 19.5q-210 0 -315 -225q-19 -42 -32.5 -94t-20.5 -121t-9 -100t-6 -103l4 -4q151 209 385 209q127 0 225.5 -61.5t149.5 -164t51 -227.5q0 -93 -29.5 -180.5t-84.5 -159t-144.5 -115t-199.5 -43.5
q-120 0 -211.5 50t-143.5 122q-63 87 -98 204t-35 331q0 54 1 94t11 128t28 153.5t56.5 147.5t91.5 134.5t138.5 89.5t191.5 37q66 0 122 -14.5t94 -35.5t69 -55t48 -61t32 -65.5t20 -58t11 -48.5zM909 459q0 76 -20.5 138t-53 101.5t-75 66.5t-84.5 38.5t-84 11.5
q-58 0 -116 -20.5t-109.5 -60.5t-84 -108t-32.5 -153q0 -100 40.5 -189.5t118.5 -147.5t177 -58q141 0 232 112t91 269z" />
    <glyph glyph-name="seven" unicode="7" 
d="M115 1446h925v-82q-50 -57 -88 -104t-96 -129t-102 -160t-95 -189t-86.5 -224.5t-64 -258.5t-39.5 -299h-135q12 176 39.5 320.5t83.5 301t150 317t233 339.5l43 57h-768v111z" />
    <glyph glyph-name="eight" unicode="8" 
d="M774 788q26 -10 40.5 -15.5t47 -22t52.5 -33t47 -46t42.5 -63t27 -82t11.5 -104.5q0 -193 -131 -320t-342 -127t-342 127t-131 320q0 56 11.5 104.5t27 82t43 63t47.5 46t52.5 33t46.5 22t41 15.5q-22 10 -36.5 18t-43 26t-48 40t-40 53t-31 73.5t-10.5 91.5
q0 156 114 266t299 110t299.5 -110t114.5 -266q0 -49 -10.5 -91.5t-31 -73.5t-40 -53t-48 -40t-43 -26t-36.5 -18zM567 731q-159 0 -249.5 -87t-90.5 -234q0 -156 96.5 -244t243.5 -88q93 0 169.5 35.5t125.5 112.5t49 184q0 147 -92 234t-252 87zM569 1364q-73 0 -130 -26
t-90 -67.5t-49.5 -88.5t-16.5 -95q0 -105 78 -179t208 -74q129 0 208 74.5t79 178.5q0 48 -17 95t-50.5 88.5t-90.5 67.5t-129 26z" />
    <glyph glyph-name="nine" unicode="9" 
d="M131 313l125 15q8 -32 15.5 -56t28.5 -63.5t48.5 -65.5t75 -45.5t106.5 -19.5q211 0 316 225q24 52 39 131t19 131.5t8 134.5q1 14 1 21l-4 4q-151 -209 -385 -209q-127 0 -225.5 61.5t-149.5 164t-51 227.5q0 93 29.5 180t85 158.5t145 115t199.5 43.5q120 0 210.5 -50
t143.5 -122q63 -87 98 -204t35 -330q0 -41 -0.5 -69t-5.5 -92t-13.5 -112.5t-26.5 -117t-43 -119.5t-65 -105.5t-89.5 -89.5t-120 -57.5t-154.5 -22.5q-52 0 -97.5 9t-79.5 22.5t-64 36t-50 42.5t-37.5 49.5t-27 49.5t-18.5 49.5t-12.5 43t-8.5 36.5zM229 983
q0 -76 20.5 -138t53 -101.5t75 -66.5t85 -38.5t84.5 -11.5q58 0 116 20.5t109.5 60.5t84 108t32.5 153q0 100 -40.5 189.5t-118.5 147.5t-177 58q-141 0 -232.5 -112t-91.5 -269z" />
    <glyph glyph-name="colon" unicode=":" horiz-adv-x="569" 
d="M199 195h174v-195h-174v195zM199 1061h174v-195h-174v195z" />
    <glyph glyph-name="semicolon" unicode=";" horiz-adv-x="569" 
d="M199 195h174v-195q0 -88 -26.5 -151.5t-104.5 -120.5l-54 71q56 43 73 80t18 121h-80v195zM199 1061h174v-195h-174v195z" />
    <glyph glyph-name="less" unicode="&#x3c;" horiz-adv-x="1351" 
d="M1212 223l-1073 451v84l1073 454v-100l-950 -395l950 -393v-101z" />
    <glyph glyph-name="equal" unicode="=" horiz-adv-x="1351" 
d="M139 1008h1073v-95h-1073v95zM139 520h1073v-94h-1073v94z" />
    <glyph glyph-name="greater" unicode="&#x3e;" horiz-adv-x="1351" 
d="M139 1212l1073 -452v-82l-1073 -455v101l951 395l-951 393v100z" />
    <glyph glyph-name="question" unicode="?" horiz-adv-x="1024" 
d="M559 362h-127q-1 66 1 106.5t12 86.5t31.5 82.5t57.5 79.5t91 94q98 87 138 147.5t40 141.5q0 115 -81.5 195.5t-199.5 80.5q-46 0 -86 -12.5t-67.5 -30t-51.5 -47t-37.5 -52.5t-26.5 -58.5t-18 -52.5t-12 -46l-135 23q6 28 12.5 51.5t23 66t37 76t56 72t78.5 64.5
t105 43.5t135 17.5q90 0 162 -26.5t116.5 -67.5t74.5 -94t42 -102.5t12 -96.5q0 -98 -47.5 -183.5t-163.5 -193.5q-113 -104 -142.5 -167t-29.5 -198zM418 193h172v-193h-172v193z" />
    <glyph glyph-name="at" unicode="@" horiz-adv-x="1638" 
d="M1143 1085h125l-170 -802l-4 -29q-9 -44 -9 -51q0 -19 14 -30t36 -11q40 0 91 24.5t104 74.5t97.5 116.5t72.5 162t28 199.5q0 41 -5 86t-22.5 110.5t-46 124.5t-80 119.5t-119 104.5t-170 72t-225.5 28q-143 0 -268.5 -41.5t-218.5 -116t-160 -174.5t-101 -219.5
t-34 -248.5q0 -163 53.5 -304t152 -246.5t249.5 -166t335 -60.5q87 0 167 13t138 31.5t114 49.5t89.5 54.5t71.5 61t52.5 54.5t39.5 48h102q-257 -393 -774 -393q-263 0 -462 110t-304.5 304.5t-105.5 445.5q0 134 33 260.5t103.5 239.5t171 197t245.5 133.5t317 49.5
q123 0 228.5 -27t180 -71.5t134 -105.5t96.5 -126.5t61.5 -138t34 -135.5t9.5 -123q0 -124 -35 -234.5t-91 -187.5t-125 -134t-137.5 -84t-127.5 -27q-121 0 -121 106q0 30 8 74l-4 4q-152 -184 -338 -184q-152 0 -249 122t-97 300q0 110 37.5 220t102.5 198t162.5 143
t207.5 55q56 0 105.5 -16t80 -36.5t58 -52t38 -48t23.5 -39.5zM1061 737q0 127 -73 206t-183 79q-75 0 -140 -37t-109 -95t-75.5 -130t-46 -142t-14.5 -131q0 -134 69.5 -227.5t186.5 -93.5q82 0 156 58t123 145t77.5 185.5t28.5 182.5z" />
    <glyph glyph-name="A" unicode="A" horiz-adv-x="1366" 
d="M1018 463h-684l-184 -463h-150l596 1466h145l625 -1466h-158zM377 586h594l-303 735z" />
    <glyph glyph-name="B" unicode="B" horiz-adv-x="1366" 
d="M176 0v1466h553q92 0 166.5 -19t120.5 -47t80 -68t50.5 -73.5t25.5 -72.5t10.5 -56.5t1.5 -33.5q0 -59 -17 -110t-38 -83t-55.5 -62t-53 -41.5t-47.5 -27.5q23 -8 32.5 -12t37 -15.5t42 -21t40 -27.5t40.5 -35.5t34 -44.5t29 -56t17.5 -67t7.5 -81q0 -58 -14.5 -114
t-49.5 -110.5t-86.5 -95.5t-132 -66.5t-179.5 -25.5h-615zM782 698h-467v-575h461q77 0 137.5 18.5t96.5 48t59.5 69t32 77t8.5 76.5q0 122 -84.5 204t-243.5 82zM315 1341v-520h433q85 0 146 25.5t92 67.5t44.5 84.5t13.5 88.5q0 52 -14.5 93t-35.5 67.5t-56 45t-63.5 28
t-71 14.5t-66 5.5t-61.5 0.5h-361z" />
    <glyph glyph-name="C" unicode="C" horiz-adv-x="1478" 
d="M1372 1061l-133 -35q-8 23 -11.5 32.5t-18 41t-26 50.5t-34 51.5t-45 53.5t-55.5 46t-69 40t-83 25t-98 10q-71 0 -142.5 -20t-144.5 -68.5t-128.5 -120t-90.5 -185t-35 -253.5q0 -297 142 -468t376 -171q76 0 142 18.5t111.5 44.5t85.5 68.5t62 74.5t43.5 79.5
t28.5 67.5t17 53l127 -35q-10 -33 -16.5 -53t-23.5 -62t-33.5 -71.5t-45.5 -71t-60 -71t-76.5 -61t-96 -51t-116.5 -32.5t-141 -13q-147 0 -265 48t-191.5 124.5t-123 178t-69.5 202t-20 203.5q0 185 56.5 333.5t151.5 239.5t214 139t251 48q69 0 131 -12t110 -30t91.5 -47
t73.5 -55.5t59 -64t45 -63t33.5 -63t24 -53t16.5 -42.5z" />
    <glyph glyph-name="D" unicode="D" horiz-adv-x="1478" 
d="M182 0v1466h563q23 0 59 -2.5t119 -21.5t142 -53q90 -50 153 -134.5t92.5 -180.5t41.5 -176t12 -157q0 -60 -4.5 -117.5t-23.5 -141.5t-50 -154t-90.5 -140.5t-138.5 -115.5q-58 -33 -157 -52.5t-155 -19.5h-563zM322 1343v-1220h344q188 0 278 41q277 130 277 588
q0 45 -4 91.5t-20.5 117.5t-44 130t-80.5 116.5t-124 90.5q-94 45 -282 45h-344z" />
    <glyph glyph-name="E" unicode="E" horiz-adv-x="1251" 
d="M319 815h740v-123h-740v-569h828v-123h-967v1466h938v-123h-799v-528z" />
    <glyph glyph-name="F" unicode="F" 
d="M182 1466h867v-123h-727v-530h620v-123h-620v-690h-140v1466z" />
    <glyph glyph-name="G" unicode="G" horiz-adv-x="1593" 
d="M858 731h602v-545q-138 -101 -276.5 -156t-333.5 -55q-116 0 -222 27t-200 86t-163.5 144t-109.5 209t-40 274q0 154 37 281.5t103 218.5t157.5 153.5t200 92.5t231.5 30q97 0 180 -18.5t139.5 -45t104 -69t74 -76t49.5 -82t31 -70.5t18 -57l-135 -41q-10 29 -16 44.5
t-26.5 56.5t-41.5 68t-59.5 63.5t-82 58t-107 37.5t-136.5 16q-270 0 -424 -178.5t-154 -468.5q0 -142 38 -255.5t97.5 -183.5t138 -116.5t154.5 -65t152 -18.5q265 0 485 162v356h-465v123z" />
    <glyph glyph-name="H" unicode="H" horiz-adv-x="1478" 
d="M317 834h844v632h139v-1466h-139v711h-844v-711h-139v1466h139v-632z" />
    <glyph glyph-name="I" unicode="I" horiz-adv-x="569" 
d="M215 1466h139v-1466h-139v1466z" />
    <glyph glyph-name="J" unicode="J" horiz-adv-x="1024" 
d="M705 1466h139v-1048q0 -83 -14.5 -150.5t-37.5 -113t-57 -79t-69 -52.5t-78.5 -30t-79 -14.5t-76.5 -3.5q-72 0 -130.5 17t-96.5 43t-67 65.5t-44.5 75t-25 82.5t-12.5 77t-5 68l125 15q2 -29 4 -48t9 -56.5t17.5 -64t31 -59t47.5 -52.5t68.5 -34t92.5 -14q259 0 259 328
v1048z" />
    <glyph glyph-name="K" unicode="K" horiz-adv-x="1366" 
d="M180 1466h139v-766l828 766h188l-659 -600l686 -866h-182l-596 782l-265 -239v-543h-139v1466z" />
    <glyph glyph-name="L" unicode="L" 
d="M180 1466h139v-1343h740v-123h-879v1466z" />
    <glyph glyph-name="M" unicode="M" horiz-adv-x="1705" 
d="M182 1466h207l461 -1269l467 1269h207v-1466h-127v1325h-6l-484 -1325h-116l-476 1325h-6v-1325h-127v1466z" />
    <glyph glyph-name="N" unicode="N" horiz-adv-x="1478" 
d="M178 1466h139l850 -1267h7v1267h126v-1466h-147l-844 1260h-4v-1260h-127v1466z" />
    <glyph glyph-name="O" unicode="O" horiz-adv-x="1593" 
d="M797 1491q113 0 209.5 -27t165 -71.5t123 -107t88.5 -130t56 -143.5t31 -144t9 -135q0 -70 -9.5 -140t-32 -146t-57.5 -143t-89.5 -128t-123 -105t-163.5 -70t-207 -26q-113 0 -209 26.5t-165 71.5t-123 107t-88.5 129.5t-56.5 143.5t-31 144.5t-9 135.5q0 69 9 138.5
t32 145.5t57.5 143.5t89 129t123 105.5t164 70t207.5 26zM797 1376q-28 0 -64 -5t-93.5 -20t-119.5 -53t-110 -94q-152 -174 -152 -471q0 -145 36.5 -260.5t92.5 -185t130 -116t143 -64t137 -17.5q67 0 135.5 17.5t142.5 64t130.5 116t93 185t36.5 260.5q0 134 -31.5 243.5
t-84.5 182.5t-123 123t-145 72t-154 22z" />
    <glyph glyph-name="P" unicode="P" horiz-adv-x="1251" 
d="M180 1466h510q191 0 291 -65q82 -53 132 -146t50 -208q0 -58 -13.5 -114t-48 -113.5t-86 -100.5t-135.5 -70.5t-190 -27.5h-371v-621h-139v1466zM651 1343h-332v-600h332q52 0 98.5 6.5t98 26t88 51.5t60.5 87.5t24 129.5q0 61 -16 110t-39 79.5t-59.5 52.5t-66.5 33
t-72 16.5t-63.5 6.5t-52.5 1z" />
    <glyph glyph-name="Q" unicode="Q" horiz-adv-x="1593" 
d="M1176 70l-5 4q-164 -99 -374 -99q-112 0 -207 26t-163.5 70t-123 105t-89.5 128t-57.5 143t-32 146t-9.5 140q0 67 9 135.5t31 144.5t56.5 143.5t88.5 129.5t123 107t165 71.5t209 26.5q112 0 207 -26t163.5 -70t123 -105t89.5 -128.5t57.5 -143.5t32 -145.5t9.5 -139.5
q0 -172 -53 -324.5t-164 -263.5q136 -93 249 -145l-38 -96q-131 45 -297 166zM809 283l31 102q143 -28 282 -139l21 -17q1 0 3 -2t3 -2q186 178 186 508q0 144 -36.5 259.5t-92.5 185.5t-130 116t-142.5 64t-136.5 18q-47 0 -95.5 -9t-102.5 -30.5t-102 -54.5t-92.5 -84.5
t-76.5 -116t-51 -154t-19 -194.5q0 -145 36.5 -260.5t93 -185t130.5 -116t143 -64t136 -17.5q135 0 256 68q-109 83 -244 125z" />
    <glyph glyph-name="R" unicode="R" horiz-adv-x="1366" 
d="M180 1466h619q188 0 297 -80q68 -52 106.5 -135t38.5 -176q0 -166 -106 -267.5t-320 -121.5v-4q91 -43 143 -89.5t127 -162.5l279 -430h-178l-215 338q-59 91 -104.5 150.5t-84 97.5t-79.5 56.5t-78.5 25t-92.5 6.5h-213v-674h-139v1466zM713 1343h-394v-546h388h37
t47 2.5t57 7t58 14t58.5 22.5t51 34.5t44 48t27.5 64.5t11 83q0 53 -15.5 96t-38.5 70.5t-58.5 48t-68 30.5t-74 16t-69 7.5t-61.5 1.5z" />
    <glyph glyph-name="S" unicode="S" horiz-adv-x="1251" 
d="M1108 1079l-135 -6q-1 21 -3.5 39t-11.5 50.5t-22.5 59t-40 56.5t-61 50.5t-88 34t-119.5 13.5q-155 0 -248.5 -74.5t-93.5 -189.5q0 -56 21.5 -100t52.5 -71.5t81 -50t90.5 -33.5t98.5 -23q91 -19 144.5 -32.5t135.5 -47t127 -74.5t80 -112t35 -162q0 -54 -14 -108.5
t-51 -114t-93 -104.5t-149.5 -74.5t-210.5 -29.5q-500 0 -543 465l137 13q13 -122 60 -197q32 -51 77 -86t93 -51t87.5 -22.5t78.5 -6.5q108 0 195.5 33.5t142.5 104.5t55 169q0 46 -15.5 84.5t-36 65t-58 50t-65 36t-74.5 25.5t-68.5 17.5t-63.5 12.5q-54 10 -89.5 18
t-91 25t-93 36t-81 51t-69.5 70t-43.5 92.5t-17.5 119.5q0 79 30 149t86.5 124.5t147 86t202.5 31.5q300 0 418 -174q29 -43 46 -90t21 -76t7 -72z" />
    <glyph glyph-name="T" unicode="T" 
d="M51 1466h1036v-129h-448v-1337h-139v1337h-449v129z" />
    <glyph glyph-name="U" unicode="U" horiz-adv-x="1478" 
d="M178 1466h139v-940q0 -29 0.5 -49.5t5 -57.5t11.5 -64.5t22 -63.5t36 -62.5t53.5 -54t73.5 -45t97.5 -28.5t124.5 -11q116 0 199.5 33t130.5 94t68.5 136.5t21.5 170.5v942h139v-927q0 -273 -138.5 -418.5t-418.5 -145.5q-294 0 -429.5 141.5t-135.5 422.5v927z" />
    <glyph glyph-name="V" unicode="V" horiz-adv-x="1251" 
d="M12 1466h148l461 -1316h4l477 1316h137l-547 -1466h-143z" />
    <glyph glyph-name="W" unicode="W" horiz-adv-x="1820" 
d="M25 1466h141l317 -1269h4l338 1269h170l338 -1261h4l326 1261h133l-393 -1466h-137l-351 1311h-4l-358 -1311h-137z" />
    <glyph glyph-name="X" unicode="X" horiz-adv-x="1251" 
d="M88 1466h164l385 -587l420 587h145l-487 -686l528 -780h-168l-438 653l-463 -653h-166l553 766z" />
    <glyph glyph-name="Y" unicode="Y" horiz-adv-x="1251" 
d="M12 1466h164l449 -704l456 704h158l-553 -833v-633h-139v633z" />
    <glyph glyph-name="Z" unicode="Z" horiz-adv-x="1251" 
d="M131 1466h1036v-118l-958 -1225h979v-123h-1141v129l948 1214h-864v123z" />
    <glyph glyph-name="bracketleft" unicode="[" horiz-adv-x="681" 
d="M158 1466h471v-102h-348v-1667h348v-103h-471v1872z" />
    <glyph glyph-name="backslash" unicode="\" horiz-adv-x="569" 
d="M0 1466h94l475 -1503h-96z" />
    <glyph glyph-name="bracketright" unicode="]" horiz-adv-x="681" 
d="M524 -406h-471v103h348v1667h-348v102h471v-1872z" />
    <glyph glyph-name="asciicircum" unicode="^" horiz-adv-x="1351" 
d="M676 1491l448 -537l-65 -55l-383 463l-385 -463l-64 55z" />
    <glyph glyph-name="underscore" unicode="_" horiz-adv-x="1024" 
d="M-12 -256v102h1048v-102h-1048z" />
    <glyph glyph-name="grave" unicode="`" horiz-adv-x="681" 
d="M326 1466l129 -264h-103l-225 264h199z" />
    <glyph glyph-name="a" unicode="a" 
d="M248 754l-127 18q31 165 139 239t318 74q84 0 148.5 -13t107 -31t71.5 -55.5t44 -67t22.5 -86t8.5 -92.5t1 -105q0 -9 -2 -141.5t-2 -157.5q0 -133 13 -194.5t52 -141.5h-137q-18 47 -25.5 77t-13.5 85q-22 -24 -38.5 -40t-58.5 -47t-84.5 -50t-109.5 -34.5t-141 -15.5
q-88 0 -155.5 26t-106 69t-57.5 94t-19 106q0 148 119 238q25 20 49.5 32.5t94.5 30.5t180 33q219 29 317 64v37q0 38 -0.5 57.5t-6 55t-15 55t-30 45t-49.5 39t-74 23t-103 9.5q-57 0 -104 -9.5t-79 -23t-57.5 -36t-39 -40.5t-25.5 -46t-15.5 -42zM856 502v69
q-97 -37 -338 -79q-32 -6 -47 -8.5t-45.5 -9.5t-45.5 -12.5t-40 -15t-38 -20t-30 -25.5t-25 -32t-14 -39.5t-6 -48.5q0 -88 69 -145.5t163 -57.5q67 0 144.5 29t141.5 81q58 47 84.5 119t26.5 195z" />
    <glyph glyph-name="b" unicode="b" horiz-adv-x="1251" 
d="M285 162v-162h-123v1466h123v-577h4q25 34 50.5 60t73.5 61t118 55t155 20q99 0 179.5 -32t133.5 -84.5t89.5 -124t52.5 -148t16 -157.5q0 -38 -4 -79.5t-17 -98.5t-34 -108t-58.5 -103.5t-86.5 -90t-122 -61t-161 -23.5q-82 0 -148 17.5t-112 50t-71.5 57.5t-53.5 62h-4
zM1026 528q0 113 -29.5 202.5t-79.5 143t-112.5 81.5t-132.5 28q-138 0 -244 -86q-66 -54 -104.5 -141.5t-38.5 -241.5q0 -110 30.5 -195.5t83.5 -137t120 -77.5t145 -26q151 0 256.5 119.5t105.5 330.5z" />
    <glyph glyph-name="c" unicode="c" 
d="M1032 762l-131 -21q-34 115 -120.5 178.5t-207.5 63.5q-43 0 -86.5 -11t-92 -41.5t-85 -77t-60.5 -126.5t-24 -182q0 -208 93.5 -337.5t261.5 -129.5q50 0 94 12.5t74.5 28.5t59 45.5t44 50t33 56t23 49t16.5 42.5l123 -18q-90 -369 -474 -369q-101 0 -182.5 30.5
t-136 82.5t-91 123.5t-53 151.5t-16.5 169q0 50 5.5 99t20.5 104.5t38.5 104.5t62 95t87.5 78.5t119 52t153 19.5q76 0 138 -13.5t123.5 -47t110 -99.5t80.5 -163z" />
    <glyph glyph-name="d" unicode="d" horiz-adv-x="1251" 
d="M967 889v577h123v-1466h-123v162q-25 -28 -42.5 -45.5t-56.5 -47.5t-78 -48t-98 -32t-125 -14q-103 0 -185.5 35.5t-135 93t-88 133t-50 150.5t-14.5 152q0 75 14 147.5t48.5 146t87 128.5t136.5 89.5t189 34.5q71 0 132 -14.5t100 -34t74.5 -49.5t52 -50.5t35.5 -47.5h4
zM225 528q0 -211 106 -330.5t257 -119.5q150 0 254 94q125 111 125 363q0 102 -26 182.5t-66 129t-93.5 80.5t-102.5 44t-99 12q-70 0 -132.5 -28t-113 -81.5t-80 -143t-29.5 -202.5z" />
    <glyph glyph-name="e" unicode="e" 
d="M1047 516h-818q3 -199 94.5 -318.5t262.5 -119.5q48 0 90 11.5t71.5 27t56.5 42t42 46.5t30.5 51t20.5 44t14 36l123 -21q-9 -26 -14 -39t-19.5 -44.5t-26.5 -50.5t-34.5 -49t-45 -49.5t-56.5 -41.5t-70.5 -35t-85 -22t-102.5 -9q-227 0 -354.5 149t-127.5 406
q0 255 127 405t357 150q316 0 419 -281q43 -115 46 -288zM231 618h684q-7 82 -30 146.5t-55.5 104.5t-75 66.5t-85.5 37t-91 10.5q-18 0 -37 -1.5t-52 -10t-61.5 -22.5t-62 -41.5t-59 -64.5t-46.5 -95.5t-29 -129.5z" />
    <glyph glyph-name="f" unicode="f" horiz-adv-x="569" 
d="M31 1061h170v113q0 103 13.5 152.5t43.5 82.5q73 82 201 82q47 0 155 -25l-22 -100q-76 10 -105 10q-55 0 -89 -15t-49.5 -48.5t-20 -67t-4.5 -90.5v-94h223v-92h-223v-969h-123v969h-170v92z" />
    <glyph glyph-name="g" unicode="g" horiz-adv-x="1251" 
d="M965 1061h125v-977q0 -60 -5.5 -110.5t-20 -104t-38.5 -96.5t-63.5 -82t-92.5 -64.5t-128 -41t-167 -15.5q-413 0 -434 313l121 -24q4 -20 7 -30.5t13 -33.5t21.5 -36.5t34.5 -32t51 -29t71.5 -18t96.5 -7.5q214 0 311 99.5t97 287.5v103h-4q-22 -29 -39 -48t-52.5 -48
t-74 -46.5t-98 -31t-128.5 -13.5q-103 0 -186 36t-135 92.5t-87 131t-49 147t-14 144.5q0 45 5.5 92.5t20.5 103.5t38 106t60.5 98t84.5 82.5t114.5 55.5t147.5 21q267 0 392 -202h4v178zM967 518q0 224 -105.5 344.5t-267.5 120.5q-90 0 -161 -36.5t-115 -99.5t-66.5 -143
t-22.5 -172q0 -128 40 -229t123.5 -163t199.5 -62q48 0 95 11.5t99 42t91 78t64.5 127.5t25.5 181z" />
    <glyph glyph-name="h" unicode="h" 
d="M164 1466h123v-561h4q28 39 50.5 63t63 55t97 46.5t127.5 15.5q179 0 280 -112q27 -31 44.5 -69.5t23.5 -83.5t7 -67.5t1 -60.5v-692h-123v659q0 78 -8 130t-33 88q-32 47 -86 73.5t-119 26.5q-89 0 -170.5 -51t-121.5 -138q-22 -48 -29.5 -117t-7.5 -210v-461h-123v1466
z" />
    <glyph glyph-name="i" unicode="i" horiz-adv-x="454" 
d="M166 1061h123v-1061h-123v1061zM166 1466h123v-188h-123v188z" />
    <glyph glyph-name="j" unicode="j" horiz-adv-x="454" 
d="M166 1061h123v-1145q0 -143 -16 -208t-74 -101q-58 -37 -131 -37q-39 0 -127 22l24 109q47 -12 78 -12q47 0 71.5 14.5t38 60.5t13.5 136v1161zM166 1466h123v-188h-123v188z" />
    <glyph glyph-name="k" unicode="k" horiz-adv-x="1024" 
d="M164 1466h123v-897l520 492h174l-442 -395l475 -666h-162l-403 582l-162 -144v-438h-123v1466z" />
    <glyph glyph-name="l" unicode="l" horiz-adv-x="454" 
d="M166 1466h123v-1466h-123v1466z" />
    <glyph glyph-name="m" unicode="m" horiz-adv-x="1705" 
d="M164 1061h123v-152h4q116 176 319 176q58 0 105.5 -14.5t74.5 -31.5t51 -46.5t32 -44t20 -39.5q22 28 38 46t48 45.5t64 43.5t80 28.5t102 12.5q151 0 239 -96q80 -84 80 -266v-723h-123v659q0 36 -1 59.5t-5 60.5t-12.5 61.5t-25 53t-39.5 45.5t-59 28.5t-81 11.5
q-72 0 -125 -28.5t-83 -71.5t-47.5 -107t-22.5 -121.5t-5 -128.5v-522h-122v672v40t-2 42t-5 46.5t-10 43t-17 42.5t-25.5 34.5t-36 29.5t-49 17.5t-62.5 7.5q-78 0 -137 -34t-93.5 -92.5t-51.5 -130t-17 -153.5v-565h-123v1061z" />
    <glyph glyph-name="n" unicode="n" 
d="M164 1061h123v-156h4q28 39 50.5 63t63 55t97 46.5t127.5 15.5q179 0 280 -112q27 -31 44.5 -69.5t23.5 -83.5t7 -67.5t1 -60.5v-692h-123v659q0 78 -8 130t-33 88q-32 47 -86 73.5t-119 26.5q-89 0 -170.5 -51t-121.5 -138q-22 -48 -29.5 -117t-7.5 -210v-461h-123v1061
z" />
    <glyph glyph-name="o" unicode="o" 
d="M1042 524q0 -120 -28.5 -218.5t-85 -173t-148.5 -116t-213 -41.5q-220 0 -347.5 152.5t-125.5 396.5q1 272 126.5 416.5t346.5 144.5q220 0 347.5 -145.5t127.5 -415.5zM911 524q0 218 -89.5 338.5t-250.5 120.5q-113 0 -192.5 -61t-116.5 -162.5t-37 -235.5
q0 -213 95.5 -329.5t252.5 -116.5q155 0 246.5 117.5t91.5 328.5z" />
    <glyph glyph-name="p" unicode="p" horiz-adv-x="1251" 
d="M285 162v-568h-123v1467h123v-172h4q21 27 39 48t54.5 51t76 49t99 33.5t126.5 14.5q101 0 183 -33t135 -86.5t89 -125.5t51 -147t15 -154q0 -38 -4 -79.5t-17 -98.5t-34 -108t-58.5 -103.5t-86.5 -90t-122 -61t-161 -23.5q-82 0 -148 17.5t-112 50t-71.5 57.5t-53.5 62
h-4zM1026 528q0 113 -29 202t-79 143t-112.5 82t-133.5 28q-138 0 -244 -86q-65 -52 -104 -140.5t-39 -242.5q0 -110 30.5 -195.5t83.5 -137t120 -77.5t145 -26q151 0 256.5 119.5t105.5 330.5z" />
    <glyph glyph-name="q" unicode="q" horiz-adv-x="1251" 
d="M967 162h-4q-28 -37 -53.5 -62t-71.5 -57.5t-112 -50t-148 -17.5q-88 0 -161 23.5t-122 61t-87 90t-59 103.5t-34 108t-17 98.5t-4 79.5q0 79 15 154t51 147t89 125.5t135 86.5t183 33q67 0 126.5 -14.5t99 -34t76 -49t55 -50.5t39.5 -48h4v172h123v-1467h-123v568z
M225 528q0 -211 106 -330.5t257 -119.5q78 0 145 26t120 77.5t83.5 137t30.5 195.5q0 154 -39 242.5t-105 140.5q-106 86 -243 86q-71 0 -133.5 -28t-112.5 -82t-79.5 -143t-29.5 -202z" />
    <glyph glyph-name="r" unicode="r" horiz-adv-x="681" 
d="M162 1061h110v-213h4q9 32 18 55.5t29.5 60.5t44.5 61t64 42t88 18q41 0 79 -11t59.5 -22t50.5 -30l-47 -109q-96 41 -144 41q-17 0 -29 -1t-35.5 -8.5t-42.5 -21.5t-41.5 -42t-39.5 -68q-22 -47 -37 -178q-8 -71 -8 -150v-485h-123v1061z" />
    <glyph glyph-name="s" unicode="s" horiz-adv-x="1024" 
d="M879 805l-121 -19q-12 37 -19.5 57.5t-28 51.5t-46.5 47t-71.5 28.5t-105.5 12.5q-117 0 -182 -45t-65 -127q0 -52 23.5 -86t93 -64t198.5 -57q87 -18 149.5 -40.5t114.5 -57.5t78.5 -86t26.5 -119q0 -66 -25 -123.5t-74 -103.5t-130 -72.5t-185 -26.5q-86 0 -154 16.5
t-114 43.5t-80 68t-53.5 85t-32.5 99l127 22q5 -20 9 -32t16 -39t25.5 -45.5t38 -42t54 -37.5t73.5 -24.5t95 -10.5q130 0 204.5 59t74.5 146q0 78 -69 123.5t-243 82.5q-183 38 -277.5 106.5t-94.5 192.5q0 35 9.5 71.5t35.5 78t66.5 73.5t109 53t155.5 21
q166 0 260.5 -61.5t133.5 -218.5z" />
    <glyph glyph-name="t" unicode="t" horiz-adv-x="569" 
d="M315 1413v-352h199v-92h-199v-697q0 -105 22.5 -145.5t96.5 -40.5q24 0 98 14l17 -100q-88 -16 -131 -16q-41 0 -74 6t-56 19.5t-40 27t-27 37t-16 40t-8.5 45.5t-3 45t-0.5 46v6v713h-148v92h148v272z" />
    <glyph glyph-name="u" unicode="u" 
d="M975 0h-123v158h-4q-28 -39 -50.5 -64t-63 -56t-97 -47t-127.5 -16q-170 0 -277 113q-29 30 -46.5 68.5t-24 84.5t-7.5 67.5t-1 60.5v692h122v-658q0 -160 41 -219q33 -46 87 -73t118 -27q89 0 171 51.5t122 138.5q21 46 29 118t8 210v459h123v-1061z" />
    <glyph glyph-name="v" unicode="v" horiz-adv-x="1024" 
d="M29 1061h133l350 -907l350 907h133l-426 -1061h-114z" />
    <glyph glyph-name="w" unicode="w" horiz-adv-x="1478" 
d="M12 1061h131l285 -905h4l250 905h115l252 -905h4l284 905h129l-356 -1061h-127l-242 872h-4l-239 -872h-129z" />
    <glyph glyph-name="x" unicode="x" horiz-adv-x="1024" 
d="M47 1061h156l309 -406l309 406h156l-393 -496l424 -565h-156l-340 461l-340 -461h-156l424 553z" />
    <glyph glyph-name="y" unicode="y" horiz-adv-x="1024" 
d="M35 1061h137l348 -918l365 918h121l-502 -1272q-46 -118 -105.5 -168.5t-140.5 -50.5q-40 0 -119 18l-14 125q78 -16 113 -16q60 0 88 24.5t55 92.5l74 186z" />
    <glyph glyph-name="z" unicode="z" horiz-adv-x="1024" 
d="M84 1061h860v-84l-737 -868h770v-109h-934v109l727 849h-686v103z" />
    <glyph glyph-name="braceleft" unicode="{" horiz-adv-x="681" 
d="M586 1491v-113q-44 -1 -69 -4.5t-47.5 -16.5t-33 -32.5t-18.5 -59.5t-10 -89t-2 -129q0 -58 -0.5 -85.5t-2 -75t-5 -71.5t-10 -61.5t-16.5 -58t-25 -48t-34.5 -45.5t-46 -37t-59.5 -35q33 -15 59.5 -34t46 -37.5t34.5 -45t25 -47t16.5 -53.5t10 -54.5t5.5 -60.5t2 -61
v-65q0 -276 23.5 -329.5t156.5 -59.5v-113q-73 -2 -125.5 14.5t-84.5 45t-51 75t-25.5 95.5t-6.5 116q0 263 -4.5 332.5t-28.5 118.5q-17 33 -36.5 54t-43.5 29.5t-39 11t-41 3.5v131q39 1 70.5 15t51 33t34 50t21.5 57t11 63.5t4.5 59t0.5 54.5q0 257 8 334.5t49 130.5
q27 36 62.5 59t65.5 29.5t60.5 9.5t47.5 0z" />
    <glyph glyph-name="bar" unicode="|" horiz-adv-x="454" 
d="M176 1466h103v-1872h-103v1872z" />
    <glyph glyph-name="braceright" unicode="}" horiz-adv-x="681" 
d="M96 -430v113q44 1 69 4.5t47.5 16.5t33 32.5t18.5 59.5t10 89t2 129q0 58 0.5 85.5t2 75t5 71.5t10 61t16.5 57.5t25 48t34.5 45.5t46 37t59.5 35q-42 19 -74 45t-52.5 50.5t-35 62.5t-22 65.5t-11 75.5t-4 76t-0.5 84q0 276 -23.5 329.5t-156.5 59.5v113
q73 2 126.5 -14.5t85 -45.5t50 -75.5t25 -95.5t6.5 -115q0 -263 4.5 -332.5t28.5 -118.5q17 -34 36 -55t44 -29.5t38.5 -10.5t41.5 -3v-131q-39 -1 -70.5 -15t-51 -33t-34 -50t-21.5 -57t-11 -63.5t-4.5 -59t-0.5 -54.5q0 -257 -8 -334.5t-49 -130.5q-27 -36 -62.5 -59
t-65.5 -29.5t-60.5 -9.5t-47.5 0z" />
    <glyph glyph-name="asciitilde" unicode="~" horiz-adv-x="1351" 
d="M1210 825v-118q-59 -40 -93 -60t-85 -37.5t-100 -17.5q-40 0 -87 13t-75.5 25t-103.5 46q-163 76 -240 76q-61 0 -137.5 -38t-147.5 -96v111q161 119 281 119q63 0 116.5 -18t143.5 -62q169 -80 250 -80q119 0 278 137z" />
    <glyph glyph-name="exclamdown" unicode="&#xa1;" horiz-adv-x="681" 
d="M418 -406h-152v330l35 774h82l35 -774v-330zM428 866h-174v195h174v-195z" />
    <glyph glyph-name="cent" unicode="&#xa2;" 
d="M750 938l-252 -852q28 -8 80 -8q50 0 94.5 12t75.5 28.5t59 45.5t44.5 50.5t33.5 55.5t23 49t16 43l123 -18q-5 -24 -11 -44.5t-22.5 -60.5t-37.5 -72t-58.5 -69.5t-83 -63t-113 -42.5t-146.5 -17q-36 0 -108 9l-111 -377l-88 24l113 377q-137 52 -212 197.5t-75 326.5
q0 77 13 150t47.5 148t87 130t139.5 90t197 35q70 0 120 -8l115 389l84 -30l-113 -379q193 -81 248 -295l-131 -21q-8 27 -14.5 44.5t-23 47.5t-45 56.5t-68.5 48.5zM414 119l252 850q-56 14 -93 14q-40 0 -81 -9.5t-90.5 -38.5t-87.5 -75t-63.5 -127.5t-25.5 -187.5
q0 -49 6.5 -98.5t24.5 -113.5t58.5 -121t99.5 -93z" />
    <glyph glyph-name="sterling" unicode="&#xa3;" 
d="M356 782h355v-102h-326q23 -87 23 -133q0 -67 -16 -127.5t-45.5 -111.5t-55 -84t-62.5 -74l4 -5q121 25 187 25q114 0 244 -41q95 -29 141 -29q92 0 231 62l56 -121q-153 -66 -267 -66q-85 0 -213 41q-105 33 -146.5 42.5t-86.5 9.5q-58 0 -112.5 -17.5t-79 -32
t-66.5 -43.5l-62 125q44 40 73 71.5t66.5 84.5t57.5 117.5t20 136.5q0 77 -26 170h-191v102h160q-59 198 -59 289q0 177 124 298.5t318 121.5q74 0 137 -17.5t105.5 -43t76.5 -63t53 -70t34 -72t19.5 -59.5t8.5 -42l-125 -22q-30 136 -109 211.5t-198 75.5
q-134 0 -221.5 -87t-87.5 -223q0 -60 12 -118t49 -179z" />
    <glyph glyph-name="currency" unicode="&#xa4;" 
d="M977 1192l63 -64l-129 -129q99 -123 99 -278q0 -156 -99 -279l129 -129l-63 -63l-129 129q-132 -100 -283 -100t-276 98l-127 -127l-64 63l129 129q-29 38 -46 64t-35.5 86t-18.5 129q0 50 9.5 94.5t29 82.5t30 54.5t31.5 46.5l-129 129l64 64l131 -131q43 31 71.5 48
t86 34.5t120.5 17.5q64 0 123 -18.5t88 -36.5t64 -45zM567 1067q-145 0 -245.5 -100.5t-100.5 -245.5t100.5 -246.5t245.5 -101.5t246.5 101.5t101.5 246.5t-101.5 245.5t-246.5 100.5z" />
    <glyph glyph-name="yen" unicode="&#xa5;" 
d="M4 1466h148l423 -729l418 729h142l-430 -729h366v-94h-422l-12 -20v-136h434v-94h-434v-393h-131v393h-438v94h438v136l-10 20h-428v94h370z" />
    <glyph glyph-name="brokenbar" unicode="&#xa6;" horiz-adv-x="454" 
d="M176 1466h103v-753h-103v753zM176 346h103v-752h-103v752z" />
    <glyph glyph-name="section" unicode="&#xa7;" 
d="M952 1157l-131 -16q-4 19 -7 31t-13.5 39.5t-22 47t-33 44t-47 40t-63 26.5t-82.5 11q-65 0 -115 -21t-75.5 -53t-37.5 -62t-12 -56q0 -54 34.5 -101t82.5 -77l43 -27l404 -264q86 -56 124.5 -117t38.5 -145q0 -45 -11.5 -83t-35 -67.5t-45.5 -50.5t-57 -40t-53 -28
t-50 -22q27 -17 45.5 -30t46.5 -40t44.5 -54t29.5 -68.5t13 -88.5q0 -58 -25 -113t-72 -100.5t-124 -73.5t-173 -28q-53 0 -100 9t-82 23t-66 37t-52 43.5t-40 51t-29.5 51t-21.5 52.5t-15 46.5t-11 40.5l133 21q6 -26 9.5 -42t14.5 -47t23.5 -51t34.5 -45.5t49 -40.5
t67 -25.5t88 -10.5q66 0 117 16t78.5 38.5t45.5 51t23 50t5 38.5q0 66 -42.5 116.5t-119.5 100.5l-393 256q-191 125 -191 299q0 52 19.5 96.5t44.5 72t64 52t61 34.5t53 22q-27 20 -36.5 28t-37 36t-40 51.5t-24.5 63t-12 83.5q0 58 23 111t66.5 96.5t115 69.5t160.5 26
q339 0 397 -334zM776 639l-346 223q-29 -10 -48 -17.5t-53 -26.5t-54.5 -39t-37 -52.5t-16.5 -69.5q0 -38 16.5 -75t43.5 -65.5t46.5 -44.5t39.5 -30l323 -206q32 9 53.5 15.5t58 24t59 38t40 54t17.5 74.5q0 36 -12 67t-36.5 55.5t-43.5 39.5t-50 35z" />
    <glyph glyph-name="dieresis" unicode="&#xa8;" horiz-adv-x="681" 
d="M125 1386h123v-174h-123v174zM434 1386h123v-174h-123v174z" />
    <glyph glyph-name="copyright" unicode="&#xa9;" horiz-adv-x="1638" 
d="M1151 924l-96 -29q-71 164 -226 164q-27 0 -58 -6t-72 -27t-73 -54.5t-54.5 -95t-22.5 -141.5q0 -168 79 -263t191 -95q48 0 87.5 15t63.5 33.5t45.5 52t30.5 53.5t23 55l90 -33q-9 -26 -13.5 -37t-21 -44t-31 -51.5t-42.5 -46.5t-58.5 -43.5t-74.5 -27.5t-95 -12
q-90 0 -164.5 38.5t-121 101.5t-72 140t-25.5 158q0 74 23.5 145.5t69 133t122.5 99.5t174 38q64 0 117.5 -19t92 -53.5t64 -69.5t48.5 -79zM1583 727q0 -155 -60.5 -296.5t-163 -244t-244 -163t-296.5 -60.5t-296.5 60.5t-244 163t-163 244t-60.5 296.5t60.5 296.5t163 244
t244 163t296.5 60.5t296.5 -60.5t244 -163t163 -244t60.5 -296.5zM1489 727q0 137 -53 261t-142.5 213.5t-213.5 142.5t-261 53t-261 -53t-213 -142.5t-142 -213.5t-53 -261t53 -261t142 -213.5t213 -142.5t261 -53t261 53t213.5 142.5t142.5 213.5t53 261z" />
    <glyph glyph-name="ordfeminine" unicode="&#xaa;" horiz-adv-x="684" 
d="M133 1264l-98 20q40 207 313 207q89 0 146.5 -17t86 -53t38.5 -79t10 -109v-262q0 -84 7 -125.5t23 -81.5h-104q-21 51 -29 94q-115 -119 -284 -119q-98 0 -162 55t-64 148q0 38 10.5 69t25 52t41 38t48.5 27t57.5 18.5t57.5 12t59 8.5q28 4 59.5 9.5t49.5 10l54 13.5
l48 12v33q0 81 -40.5 122.5t-135.5 41.5q-57 0 -95.5 -9.5t-62 -30t-36 -44t-23.5 -61.5zM526 1079v51q-88 -30 -209 -47q-28 -4 -44 -7t-43 -9.5t-43.5 -15.5t-34 -22t-25.5 -32.5t-8 -44.5q0 -55 44.5 -91t112.5 -36q49 0 102 22t95 64q53 53 53 168z" />
    <glyph glyph-name="guillemotleft" unicode="&#xab;" 
d="M879 979h106l-260 -449l260 -458h-106l-297 458zM455 979h106l-260 -449l260 -458h-106l-297 458z" />
    <glyph glyph-name="logicalnot" unicode="&#xac;" horiz-adv-x="1351" 
d="M139 1008h1073v-582h-94v487h-979v95z" />
    <glyph glyph-name="registered" unicode="&#xae;" horiz-adv-x="1638" 
d="M844 1120q56 0 100.5 -11t72.5 -27t48 -39t29.5 -42t15 -42t6 -32.5t0.5 -19.5q0 -54 -19.5 -95.5t-46 -64t-63.5 -38t-60 -20t-48 -7.5v-4q61 -21 93 -47.5t70.5 -94t104.5 -219.5h-121l-22 48q-50 105 -82 159t-72 89t-81 44t-112 9h-47v-349h-100v803h334zM610 1038
v-290h133q46 0 78.5 2.5t68.5 11.5t58 24.5t36.5 44t14.5 68.5q0 38 -13 64.5t-31.5 41t-53 22t-64 9.5t-77.5 2h-150zM1583 727q0 -155 -60.5 -296.5t-163 -244t-244 -163t-296.5 -60.5t-296.5 60.5t-244 163t-163 244t-60.5 296.5t60.5 296.5t163 244t244 163t296.5 60.5
t296.5 -60.5t244 -163t163 -244t60.5 -296.5zM1489 727q0 137 -53 261t-142.5 213.5t-213.5 142.5t-261 53t-261 -53t-213 -142.5t-142 -213.5t-53 -261t53 -261t142 -213.5t213 -142.5t261 -53t261 53t213.5 142.5t142.5 213.5t53 261z" />
    <glyph glyph-name="macron" unicode="&#xaf;" horiz-adv-x="681" 
d="M39 1337h604v-110h-604v110z" />
    <glyph glyph-name="degree" unicode="&#xb0;" horiz-adv-x="819" 
d="M696 1204q0 -120 -83 -203t-203 -83q-119 0 -203 83t-84 203q0 118 84.5 202.5t202.5 84.5q120 0 203 -84t83 -203zM614 1204q0 85 -59.5 145t-144.5 60t-145 -60t-60 -145t60 -145t145 -60t144.5 60t59.5 145z" />
    <glyph glyph-name="plusminus" unicode="&#xb1;" horiz-adv-x="1351" 
d="M629 1257h94v-489h489v-94h-489v-490h-94v490h-490v94h490v489zM139 94h1073v-94h-1073v94z" />
    <glyph glyph-name="twosuperior" unicode="&#xb2;" horiz-adv-x="681" 
d="M643 741h-606q15 40 27.5 63.5t43 64t86 87.5t138.5 105q97 68 143.5 115.5t46.5 101.5q0 52 -40.5 86.5t-116.5 34.5q-143 0 -193 -122q-1 -4 -2 -5l-109 8q11 29 18.5 47t32 53t54 56t82 38t117.5 17q137 0 203.5 -60.5t66.5 -146.5q0 -79 -53.5 -142t-157.5 -138
q-62 -44 -100 -74t-55 -45.5t-60 -57.5h434v-86z" />
    <glyph glyph-name="threesuperior" unicode="&#xb3;" horiz-adv-x="681" 
d="M293 1085l16 89q26 3 41 5t47 10.5t51 19.5t34.5 31.5t15.5 47.5q0 49 -43 80t-101 31q-44 0 -74.5 -8t-50 -28t-28 -34t-23.5 -45l-108 16q69 191 286 191q117 0 185.5 -53t68.5 -135q0 -37 -12 -65t-36 -47.5t-38 -27.5t-39 -20q158 -40 158 -191q0 -103 -82 -168
t-209 -65q-48 0 -89 9t-69.5 22t-52.5 33.5t-37.5 38t-25.5 41t-17 36.5t-10 31l111 10q47 -125 188 -125q77 0 129.5 38.5t52.5 104.5q0 55 -42 93.5t-128 38.5q-5 0 -15 -1t-26 -2t-28 -2z" />
    <glyph glyph-name="acute" unicode="&#xb4;" horiz-adv-x="681" 
d="M356 1466h199l-225 -264h-103z" />
    <glyph glyph-name="mu" unicode="&#xb5;" 
d="M164 1061h123v-440q0 -215 14 -296t70 -149q33 -40 74 -61.5t68.5 -26t64.5 -4.5q167 0 245 154q39 76 39 380v443h123v-1061h-123v119q-21 -25 -31.5 -36.5t-39.5 -36t-56 -37t-70.5 -23.5t-93.5 -11q-46 0 -88 11t-68 23.5t-56 37.5t-40 36t-32 36v-537h-123v1479z" />
    <glyph glyph-name="paragraph" unicode="&#xb6;" horiz-adv-x="1331" 
d="M1272 1466v-139h-197v-1733h-131v1733h-262v-1733h-131v1031q-108 -1 -192 30t-131 77t-77.5 106.5t-40.5 110.5t-10 98q0 184 126 301.5t354 117.5h692z" />
    <glyph glyph-name="periodcentered" unicode="&#xb7;" horiz-adv-x="569" 
d="M186 817h197v-194h-197v194z" />
    <glyph glyph-name="cedilla" unicode="&#xb8;" horiz-adv-x="681" 
d="M272 23h103l-35 -123q79 -2 128.5 -34.5t49.5 -103.5q0 -77 -78.5 -122.5t-228.5 -45.5q-27 0 -105 11l9 84q46 -6 82 -6q22 0 47 3t59 11t56 28.5t22 49.5q0 7 -1 13.5t-9.5 21t-23 24t-46.5 16.5t-76 5z" />
    <glyph glyph-name="onesuperior" unicode="&#xb9;" horiz-adv-x="681" 
d="M381 1491h78v-752h-107v590q-93 -75 -225 -119v84q97 52 150 94.5t104 102.5z" />
    <glyph glyph-name="ordmasculine" unicode="&#xba;" horiz-adv-x="684" 
d="M670 1114q0 -87 -22.5 -155.5t-56.5 -108.5t-79.5 -66t-86 -35.5t-81.5 -9.5q-129 0 -217 76q-111 95 -111 301q0 190 90 282.5t234 92.5q152 0 241 -104t89 -273zM567 1114q0 59 -12.5 109t-38 92t-71.5 66t-107 24q-54 0 -94.5 -19t-64 -47.5t-37.5 -69.5t-18.5 -77
t-4.5 -78q0 -126 54 -207.5t165 -81.5q46 0 83.5 14t60.5 34.5t40.5 50.5t25.5 56t13 57t5.5 46t0.5 31z" />
    <glyph glyph-name="guillemotright" unicode="&#xbb;" 
d="M260 72h-106l260 448l-260 459h106l297 -459zM684 72h-106l260 448l-260 459h106l297 -459z" />
    <glyph glyph-name="onequarter" unicode="&#xbc;" horiz-adv-x="1708" 
d="M1372 137h-401v88l418 494h90v-494h100v-88h-100v-170h-107v170zM1085 225h287v328zM406 1491h77v-752h-106v590q-93 -75 -225 -119v84q97 52 150 94.5t104 102.5zM1358 1491h112l-1093 -1544h-115z" />
    <glyph glyph-name="onehalf" unicode="&#xbd;" horiz-adv-x="1708" 
d="M406 1491h77v-752h-106v590q-93 -75 -225 -119v84q97 52 150 94.5t104 102.5zM1335 1491h111l-1092 -1544h-116zM1604 -33h-607q16 40 28 63.5t42.5 64.5t86 88.5t138.5 105.5q40 28 61.5 44t50.5 40.5t43.5 43t25 42t10.5 47.5q0 52 -43 88.5t-115 36.5q-40 0 -73 -11
t-51.5 -24t-35.5 -36t-22 -33t-13 -29l-108 10q8 22 12 31.5t18 36t27 41.5t37.5 37.5t52.5 34.5t68.5 21t87.5 9q137 0 203.5 -60.5t66.5 -146.5q0 -42 -15.5 -80t-47 -73.5t-65 -64t-83.5 -65.5q-100 -74 -133 -100.5t-82 -73.5h435v-88z" />
    <glyph glyph-name="threequarters" unicode="&#xbe;" horiz-adv-x="1708" 
d="M360 1085l17 89q26 3 41 5t47 10.5t50.5 19.5t34 31.5t15.5 47.5q0 49 -42.5 80t-100.5 31q-44 0 -74.5 -8t-50 -28t-28 -34t-23.5 -45l-109 16q69 191 287 191q117 0 185.5 -53t68.5 -135q0 -37 -12 -65t-36 -47.5t-38 -27.5t-39 -20q158 -40 158 -191q0 -103 -82 -168
t-209 -65q-48 0 -89 9t-69.5 22t-52.5 33.5t-37.5 38t-25.5 41t-17 36.5t-10 31l110 10q49 -129 189 -129q76 0 128 40t52 107q0 56 -41 94t-127 38q-5 0 -15.5 -1t-26.5 -2t-28 -2zM1370 1491h113l-1094 -1544h-115zM1372 137h-401v88l418 494h90v-494h100v-88h-100v-170
h-107v170zM1085 225h287v328z" />
    <glyph glyph-name="questiondown" unicode="&#xbf;" horiz-adv-x="1024" 
d="M465 698h127q1 -84 -3.5 -130.5t-23.5 -101.5t-58 -104t-108 -112q-97 -86 -137.5 -148t-40.5 -143q0 -113 81.5 -193.5t199.5 -80.5q46 0 86 12.5t67.5 30t51.5 47t37.5 52.5t26.5 58.5t18 52.5t12 46l135 -23q-6 -25 -10 -39t-15 -48t-22.5 -57t-32 -57.5t-43 -58
t-56.5 -50.5t-71.5 -43t-88.5 -27t-108 -11q-90 0 -162 26t-116.5 66.5t-74.5 93.5t-42 103t-12 98q0 98 47.5 183.5t163.5 193.5q79 73 112.5 119t46.5 98.5t13 146.5zM606 868h-172v193h172v-193z" />
    <glyph glyph-name="Agrave" unicode="&#xc0;" horiz-adv-x="1366" 
d="M1018 463h-684l-184 -463h-150l596 1466h145l625 -1466h-158zM377 586h594l-303 735zM668 1835l129 -264h-103l-225 264h199z" />
    <glyph glyph-name="Aacute" unicode="&#xc1;" horiz-adv-x="1366" 
d="M1018 463h-684l-184 -463h-150l596 1466h145l625 -1466h-158zM377 586h594l-303 735zM698 1835h199l-225 -264h-103z" />
    <glyph glyph-name="Acircumflex" unicode="&#xc2;" horiz-adv-x="1366" 
d="M1018 463h-684l-184 -463h-150l596 1466h145l625 -1466h-158zM377 586h594l-303 735zM600 1835h166l197 -266h-138l-139 184l-139 -184h-144z" />
    <glyph glyph-name="Atilde" unicode="&#xc3;" horiz-adv-x="1366" 
d="M1018 463h-684l-184 -463h-150l596 1466h145l625 -1466h-158zM377 586h594l-303 735zM889 1790h94q-4 -59 -20 -99.5t-39 -58t-42 -24t-38 -6.5q-28 0 -59 8.5t-115 38.5q-82 32 -129 32q-21 0 -35 -7t-21 -20.5t-9.5 -24t-4.5 -27.5h-88q13 188 131 188q50 0 264 -70
q20 -10 41 -10q17 0 29.5 7t19 14t12 21.5t6.5 19.5t3 18z" />
    <glyph glyph-name="Adieresis" unicode="&#xc4;" horiz-adv-x="1366" 
d="M1018 463h-684l-184 -463h-150l596 1466h145l625 -1466h-158zM377 586h594l-303 735zM467 1755h123v-174h-123v174zM776 1755h123v-174h-123v174z" />
    <glyph glyph-name="Aring" unicode="&#xc5;" horiz-adv-x="1366" 
d="M1018 463h-684l-184 -463h-150l596 1466h145l625 -1466h-158zM377 586h594l-303 735zM862 1702q0 -74 -52.5 -126t-127.5 -52q-74 0 -126 52.5t-52 125.5q0 75 52 127.5t126 52.5q75 0 127.5 -52.5t52.5 -127.5zM797 1704q0 46 -33.5 79.5t-79.5 33.5q-47 0 -81 -33.5
t-34 -79.5q0 -47 34 -80.5t81 -33.5q46 0 79.5 33.5t33.5 80.5z" />
    <glyph glyph-name="AE" unicode="&#xc6;" horiz-adv-x="2048" 
d="M1010 446h-637l-215 -446h-150l705 1466h1188v-123h-752v-528h700v-123h-700v-569h774v-123h-913v446zM432 569h578v774h-209z" />
    <glyph glyph-name="Ccedilla" unicode="&#xc7;" horiz-adv-x="1478" 
d="M1372 1061l-133 -35q-8 23 -11.5 32.5t-18 41t-26 50.5t-34 51.5t-45 53.5t-55.5 46t-69 40t-83 25t-98 10q-72 0 -143.5 -20t-144.5 -68.5t-128.5 -120.5t-90 -185t-34.5 -253q0 -294 141 -466.5t377 -172.5q74 0 137.5 17t108 41t82.5 64t60.5 72t43.5 79t29.5 72
t19.5 63l136 -37q-9 -28 -14.5 -45.5t-22 -58.5t-32 -70t-44 -71t-59 -72.5t-75 -63.5t-94.5 -54t-115 -35.5t-138 -15.5l-17 -67q164 -28 164 -146q0 -178 -340 -178q-28 0 -61 4v93q44 -5 71 -5q28 0 46 0.5t51.5 5t53.5 13t36 26.5t16 43q0 83 -164 91l41 125
q-104 12 -191 49.5t-145.5 88.5t-104 117t-71.5 130.5t-42 135.5t-21.5 125t-5.5 105q0 185 56.5 333.5t151.5 239.5t214 139t251 48q67 0 128 -11.5t108 -28.5t90 -45t73 -54t59 -62.5t46 -62.5t35.5 -63.5t26 -55.5t18.5 -47z" />
    <glyph glyph-name="Egrave" unicode="&#xc8;" horiz-adv-x="1251" 
d="M319 815h740v-123h-740v-569h828v-123h-967v1466h938v-123h-799v-528zM610 1835l129 -264h-102l-225 264h198z" />
    <glyph glyph-name="Eacute" unicode="&#xc9;" horiz-adv-x="1251" 
d="M319 815h740v-123h-740v-569h828v-123h-967v1466h938v-123h-799v-528zM641 1835h199l-225 -264h-103z" />
    <glyph glyph-name="Ecircumflex" unicode="&#xca;" horiz-adv-x="1251" 
d="M319 815h740v-123h-740v-569h828v-123h-967v1466h938v-123h-799v-528zM543 1835h166l196 -266h-137l-139 184l-140 -184h-143z" />
    <glyph glyph-name="Edieresis" unicode="&#xcb;" horiz-adv-x="1251" 
d="M319 815h740v-123h-740v-569h828v-123h-967v1466h938v-123h-799v-528zM410 1755h123v-174h-123v174zM719 1755h123v-174h-123v174z" />
    <glyph glyph-name="Igrave" unicode="&#xcc;" horiz-adv-x="569" 
d="M215 1466h139v-1466h-139v1466zM270 1835l129 -264h-102l-225 264h198z" />
    <glyph glyph-name="Iacute" unicode="&#xcd;" horiz-adv-x="569" 
d="M215 1466h139v-1466h-139v1466zM301 1835h199l-225 -264h-103z" />
    <glyph glyph-name="Icircumflex" unicode="&#xce;" horiz-adv-x="569" 
d="M215 1466h139v-1466h-139v1466zM203 1835h166l196 -266h-137l-139 184l-139 -184h-144z" />
    <glyph glyph-name="Idieresis" unicode="&#xcf;" horiz-adv-x="569" 
d="M215 1466h139v-1466h-139v1466zM70 1755h123v-174h-123v174zM379 1755h123v-174h-123v174z" />
    <glyph glyph-name="Eth" unicode="&#xd0;" horiz-adv-x="1478" 
d="M182 0v668h-182v123h182v675h563q188 0 306 -63q84 -45 147 -119t98.5 -163t52.5 -181.5t17 -189.5q0 -65 -6 -128.5t-25.5 -146.5t-51.5 -152.5t-90.5 -138t-135.5 -112.5q-58 -33 -157 -52.5t-155 -19.5h-563zM322 668v-545h344q192 0 278 39q277 126 277 590
q0 45 -3.5 89.5t-19 116t-41.5 129.5t-77.5 115.5t-121.5 89.5q-46 21 -119.5 33.5t-111.5 15t-57 2.5h-348v-552h448v-123h-448z" />
    <glyph glyph-name="Ntilde" unicode="&#xd1;" horiz-adv-x="1478" 
d="M178 1466h139l850 -1267h7v1267h126v-1466h-147l-844 1260h-4v-1260h-127v1466zM946 1790h94q-4 -59 -20 -99.5t-39 -58t-42 -24t-38 -6.5q-28 0 -59 8.5t-115 38.5q-85 33 -129 33q-21 0 -35 -7t-21 -20.5t-9.5 -24.5t-4.5 -28h-88q13 188 131 188q53 0 264 -69
q22 -11 41 -11q17 0 29.5 7t19 14t12 21.5t6.5 19.5t3 18z" />
    <glyph glyph-name="Ograve" unicode="&#xd2;" horiz-adv-x="1593" 
d="M797 1491q113 0 209.5 -27t165 -71.5t123 -107t88.5 -130t56 -143.5t31 -144t9 -135q0 -70 -9.5 -140t-32 -146t-57.5 -143t-89.5 -128t-123 -105t-163.5 -70t-207 -26q-113 0 -209 26.5t-165 71.5t-123 107t-88.5 129.5t-56.5 143.5t-31 144.5t-9 135.5q0 69 9 138.5
t32 145.5t57.5 143.5t89 129t123 105.5t164 70t207.5 26zM797 1376q-28 0 -64 -5t-93.5 -20t-119.5 -53t-110 -94q-152 -174 -152 -471q0 -145 36.5 -260.5t92.5 -185t130 -116t143 -64t137 -17.5q67 0 135.5 17.5t142.5 64t130.5 116t93 185t36.5 260.5q0 134 -31.5 243.5
t-84.5 182.5t-123 123t-145 72t-154 22zM782 1835l129 -264h-102l-225 264h198z" />
    <glyph glyph-name="Oacute" unicode="&#xd3;" horiz-adv-x="1593" 
d="M797 1491q113 0 209.5 -27t165 -71.5t123 -107t88.5 -130t56 -143.5t31 -144t9 -135q0 -70 -9.5 -140t-32 -146t-57.5 -143t-89.5 -128t-123 -105t-163.5 -70t-207 -26q-113 0 -209 26.5t-165 71.5t-123 107t-88.5 129.5t-56.5 143.5t-31 144.5t-9 135.5q0 69 9 138.5
t32 145.5t57.5 143.5t89 129t123 105.5t164 70t207.5 26zM797 1376q-28 0 -64 -5t-93.5 -20t-119.5 -53t-110 -94q-152 -174 -152 -471q0 -145 36.5 -260.5t92.5 -185t130 -116t143 -64t137 -17.5q67 0 135.5 17.5t142.5 64t130.5 116t93 185t36.5 260.5q0 134 -31.5 243.5
t-84.5 182.5t-123 123t-145 72t-154 22zM813 1835h199l-225 -264h-103z" />
    <glyph glyph-name="Ocircumflex" unicode="&#xd4;" horiz-adv-x="1593" 
d="M797 1491q113 0 209.5 -27t165 -71.5t123 -107t88.5 -130t56 -143.5t31 -144t9 -135q0 -70 -9.5 -140t-32 -146t-57.5 -143t-89.5 -128t-123 -105t-163.5 -70t-207 -26q-113 0 -209 26.5t-165 71.5t-123 107t-88.5 129.5t-56.5 143.5t-31 144.5t-9 135.5q0 69 9 138.5
t32 145.5t57.5 143.5t89 129t123 105.5t164 70t207.5 26zM797 1376q-28 0 -64 -5t-93.5 -20t-119.5 -53t-110 -94q-152 -174 -152 -471q0 -145 36.5 -260.5t92.5 -185t130 -116t143 -64t137 -17.5q67 0 135.5 17.5t142.5 64t130.5 116t93 185t36.5 260.5q0 134 -31.5 243.5
t-84.5 182.5t-123 123t-145 72t-154 22zM715 1835h166l196 -266h-137l-139 184l-139 -184h-144z" />
    <glyph glyph-name="Otilde" unicode="&#xd5;" horiz-adv-x="1593" 
d="M797 1491q113 0 209.5 -27t165 -71.5t123 -107t88.5 -130t56 -143.5t31 -144t9 -135q0 -70 -9.5 -140t-32 -146t-57.5 -143t-89.5 -128t-123 -105t-163.5 -70t-207 -26q-113 0 -209 26.5t-165 71.5t-123 107t-88.5 129.5t-56.5 143.5t-31 144.5t-9 135.5q0 69 9 138.5
t32 145.5t57.5 143.5t89 129t123 105.5t164 70t207.5 26zM797 1376q-28 0 -64 -5t-93.5 -20t-119.5 -53t-110 -94q-152 -174 -152 -471q0 -145 36.5 -260.5t92.5 -185t130 -116t143 -64t137 -17.5q67 0 135.5 17.5t142.5 64t130.5 116t93 185t36.5 260.5q0 134 -31.5 243.5
t-84.5 182.5t-123 123t-145 72t-154 22zM1004 1790h94q-4 -59 -20 -99.5t-39 -58t-42 -24t-38 -6.5q-28 0 -59 8.5t-115 38.5q-85 33 -129 33q-21 0 -35 -7t-21 -20.5t-9.5 -24.5t-4.5 -28h-88q13 188 131 188q53 0 264 -69q22 -11 41 -11q17 0 29.5 7t19 14t12 21.5
t6.5 19.5t3 18z" />
    <glyph glyph-name="Odieresis" unicode="&#xd6;" horiz-adv-x="1593" 
d="M797 1491q113 0 209.5 -27t165 -71.5t123 -107t88.5 -130t56 -143.5t31 -144t9 -135q0 -70 -9.5 -140t-32 -146t-57.5 -143t-89.5 -128t-123 -105t-163.5 -70t-207 -26q-113 0 -209 26.5t-165 71.5t-123 107t-88.5 129.5t-56.5 143.5t-31 144.5t-9 135.5q0 69 9 138.5
t32 145.5t57.5 143.5t89 129t123 105.5t164 70t207.5 26zM797 1376q-28 0 -64 -5t-93.5 -20t-119.5 -53t-110 -94q-152 -174 -152 -471q0 -145 36.5 -260.5t92.5 -185t130 -116t143 -64t137 -17.5q67 0 135.5 17.5t142.5 64t130.5 116t93 185t36.5 260.5q0 134 -31.5 243.5
t-84.5 182.5t-123 123t-145 72t-154 22zM582 1755h123v-174h-123v174zM891 1755h123v-174h-123v174z" />
    <glyph glyph-name="multiply" unicode="&#xd7;" horiz-adv-x="1351" 
d="M276 1184l400 -398l399 398l66 -66l-398 -397l398 -399l-66 -66l-399 399l-400 -399l-65 66l399 399l-399 397z" />
    <glyph glyph-name="Oslash" unicode="&#xd8;" horiz-adv-x="1593" 
d="M336 143l-170 -190l-70 59l178 199q-43 54 -74.5 121t-47 122.5t-25 117t-11 94.5t-1.5 65q0 116 23.5 223.5t76 206t130 171t193.5 116t257 43.5q295 0 469 -174l166 188l67 -59l-176 -195q73 -87 115.5 -229.5t42.5 -290.5q0 -60 -7.5 -123t-28 -139t-53 -144
t-86 -133.5t-122.5 -112.5t-169 -75.5t-218 -28.5q-291 0 -459 168zM1229 1145l-803 -901q166 -154 367 -154q73 0 144.5 19t144.5 66.5t128.5 118t90 183t34.5 252.5q0 242 -106 416zM369 315l802 902q-60 68 -163 113.5t-213 45.5q-57 0 -115 -13.5t-119.5 -42.5t-115 -80
t-96 -119.5t-67 -168t-24.5 -219.5q0 -240 111 -418z" />
    <glyph glyph-name="Ugrave" unicode="&#xd9;" horiz-adv-x="1478" 
d="M178 1466h139v-940q0 -29 0.5 -49.5t5 -57.5t11.5 -64.5t22 -63.5t36 -62.5t53.5 -54t73.5 -45t97.5 -28.5t124.5 -11q116 0 199.5 33t130.5 94t68.5 136.5t21.5 170.5v942h139v-927q0 -273 -138.5 -418.5t-418.5 -145.5q-294 0 -429.5 141.5t-135.5 422.5v927zM725 1835
l129 -264h-102l-226 264h199z" />
    <glyph glyph-name="Uacute" unicode="&#xda;" horiz-adv-x="1478" 
d="M178 1466h139v-940q0 -29 0.5 -49.5t5 -57.5t11.5 -64.5t22 -63.5t36 -62.5t53.5 -54t73.5 -45t97.5 -28.5t124.5 -11q116 0 199.5 33t130.5 94t68.5 136.5t21.5 170.5v942h139v-927q0 -273 -138.5 -418.5t-418.5 -145.5q-294 0 -429.5 141.5t-135.5 422.5v927zM755 1835
h199l-225 -264h-103z" />
    <glyph glyph-name="Ucircumflex" unicode="&#xdb;" horiz-adv-x="1478" 
d="M178 1466h139v-940q0 -29 0.5 -49.5t5 -57.5t11.5 -64.5t22 -63.5t36 -62.5t53.5 -54t73.5 -45t97.5 -28.5t124.5 -11q116 0 199.5 33t130.5 94t68.5 136.5t21.5 170.5v942h139v-927q0 -273 -138.5 -418.5t-418.5 -145.5q-294 0 -429.5 141.5t-135.5 422.5v927zM657 1835
h166l197 -266h-137l-140 184l-139 -184h-143z" />
    <glyph glyph-name="Udieresis" unicode="&#xdc;" horiz-adv-x="1478" 
d="M178 1466h139v-940q0 -29 0.5 -49.5t5 -57.5t11.5 -64.5t22 -63.5t36 -62.5t53.5 -54t73.5 -45t97.5 -28.5t124.5 -11q116 0 199.5 33t130.5 94t68.5 136.5t21.5 170.5v942h139v-927q0 -273 -138.5 -418.5t-418.5 -145.5q-294 0 -429.5 141.5t-135.5 422.5v927zM524 1755
h123v-174h-123v174zM833 1755h123v-174h-123v174z" />
    <glyph glyph-name="Yacute" unicode="&#xdd;" horiz-adv-x="1251" 
d="M12 1466h164l449 -704l456 704h158l-553 -833v-633h-139v633zM641 1835h199l-225 -264h-103z" />
    <glyph glyph-name="Thorn" unicode="&#xde;" horiz-adv-x="1251" 
d="M180 1466h139v-311h371q191 0 291 -65q82 -52 132 -144.5t50 -208.5q0 -58 -13.5 -114.5t-48 -114.5t-86 -101t-135.5 -70.5t-190 -27.5h-371v-309h-139v1466zM651 1032h-332v-600h332q53 0 99 6t97.5 25.5t88 51t60.5 87t24 129.5q0 61 -16 110t-39 80t-59.5 53
t-66.5 33t-71.5 17t-64 7t-52.5 1z" />
    <glyph glyph-name="germandbls" unicode="&#xdf;" horiz-adv-x="1024" 
d="M106 0v1096q0 126 31.5 197.5t93.5 119.5q102 78 248 78q73 0 132.5 -18t95.5 -46t60.5 -64.5t34 -70.5t9.5 -67q0 -42 -15 -88t-32 -77.5t-49 -82.5q-49 -78 -68.5 -120.5t-19.5 -76.5t20.5 -58.5t89.5 -78.5q135 -105 183.5 -180.5t48.5 -165.5q0 -131 -92.5 -226.5
t-223.5 -95.5q-48 0 -89.5 11.5t-68.5 26.5t-56.5 43.5t-44.5 46.5t-40 53l115 61q26 -43 56.5 -72t58 -39t41.5 -13t26 -3q75 0 131 59.5t56 137.5q0 69 -51.5 133.5t-157.5 140.5q-80 58 -112 102t-32 105q0 45 23 94t94 164q41 68 59.5 112.5t18.5 86.5q0 66 -53.5 108.5
t-149.5 42.5q-65 0 -112.5 -22t-73 -53.5t-40.5 -77.5t-18.5 -82t-3.5 -80v-1061h-123z" />
    <glyph glyph-name="agrave" unicode="&#xe0;" 
d="M248 754l-127 18q31 165 139 239t318 74q84 0 148.5 -13t107 -31t71.5 -55.5t44 -67t22.5 -86t8.5 -92.5t1 -105q0 -9 -2 -141.5t-2 -157.5q0 -133 13 -194.5t52 -141.5h-137q-18 47 -25.5 77t-13.5 85q-22 -24 -38.5 -40t-58.5 -47t-84.5 -50t-109.5 -34.5t-141 -15.5
q-88 0 -155.5 26t-106 69t-57.5 94t-19 106q0 148 119 238q25 20 49.5 32.5t94.5 30.5t180 33q219 29 317 64v37q0 38 -0.5 57.5t-6 55t-15 55t-30 45t-49.5 39t-74 23t-103 9.5q-57 0 -104 -9.5t-79 -23t-57.5 -36t-39 -40.5t-25.5 -46t-15.5 -42zM856 502v69
q-97 -37 -338 -79q-32 -6 -47 -8.5t-45.5 -9.5t-45.5 -12.5t-40 -15t-38 -20t-30 -25.5t-25 -32t-14 -39.5t-6 -48.5q0 -88 69 -145.5t163 -57.5q67 0 144.5 29t141.5 81q58 47 84.5 119t26.5 195zM555 1466l129 -264h-102l-226 264h199z" />
    <glyph glyph-name="aacute" unicode="&#xe1;" 
d="M248 754l-127 18q31 165 139 239t318 74q84 0 148.5 -13t107 -31t71.5 -55.5t44 -67t22.5 -86t8.5 -92.5t1 -105q0 -9 -2 -141.5t-2 -157.5q0 -133 13 -194.5t52 -141.5h-137q-18 47 -25.5 77t-13.5 85q-22 -24 -38.5 -40t-58.5 -47t-84.5 -50t-109.5 -34.5t-141 -15.5
q-88 0 -155.5 26t-106 69t-57.5 94t-19 106q0 148 119 238q25 20 49.5 32.5t94.5 30.5t180 33q219 29 317 64v37q0 38 -0.5 57.5t-6 55t-15 55t-30 45t-49.5 39t-74 23t-103 9.5q-57 0 -104 -9.5t-79 -23t-57.5 -36t-39 -40.5t-25.5 -46t-15.5 -42zM856 502v69
q-97 -37 -338 -79q-32 -6 -47 -8.5t-45.5 -9.5t-45.5 -12.5t-40 -15t-38 -20t-30 -25.5t-25 -32t-14 -39.5t-6 -48.5q0 -88 69 -145.5t163 -57.5q67 0 144.5 29t141.5 81q58 47 84.5 119t26.5 195zM585 1466h199l-225 -264h-103z" />
    <glyph glyph-name="acircumflex" unicode="&#xe2;" 
d="M248 754l-127 18q31 165 139 239t318 74q84 0 148.5 -13t107 -31t71.5 -55.5t44 -67t22.5 -86t8.5 -92.5t1 -105q0 -9 -2 -141.5t-2 -157.5q0 -133 13 -194.5t52 -141.5h-137q-18 47 -25.5 77t-13.5 85q-22 -24 -38.5 -40t-58.5 -47t-84.5 -50t-109.5 -34.5t-141 -15.5
q-88 0 -155.5 26t-106 69t-57.5 94t-19 106q0 148 119 238q25 20 49.5 32.5t94.5 30.5t180 33q219 29 317 64v37q0 38 -0.5 57.5t-6 55t-15 55t-30 45t-49.5 39t-74 23t-103 9.5q-57 0 -104 -9.5t-79 -23t-57.5 -36t-39 -40.5t-25.5 -46t-15.5 -42zM856 502v69
q-97 -37 -338 -79q-32 -6 -47 -8.5t-45.5 -9.5t-45.5 -12.5t-40 -15t-38 -20t-30 -25.5t-25 -32t-14 -39.5t-6 -48.5q0 -88 69 -145.5t163 -57.5q67 0 144.5 29t141.5 81q58 47 84.5 119t26.5 195zM487 1466h166l197 -266h-137l-140 184l-139 -184h-143z" />
    <glyph glyph-name="atilde" unicode="&#xe3;" 
d="M248 754l-127 18q31 165 139 239t318 74q84 0 148.5 -13t107 -31t71.5 -55.5t44 -67t22.5 -86t8.5 -92.5t1 -105q0 -9 -2 -141.5t-2 -157.5q0 -133 13 -194.5t52 -141.5h-137q-18 47 -25.5 77t-13.5 85q-22 -24 -38.5 -40t-58.5 -47t-84.5 -50t-109.5 -34.5t-141 -15.5
q-88 0 -155.5 26t-106 69t-57.5 94t-19 106q0 148 119 238q25 20 49.5 32.5t94.5 30.5t180 33q219 29 317 64v37q0 38 -0.5 57.5t-6 55t-15 55t-30 45t-49.5 39t-74 23t-103 9.5q-57 0 -104 -9.5t-79 -23t-57.5 -36t-39 -40.5t-25.5 -46t-15.5 -42zM856 502v69
q-97 -37 -338 -79q-32 -6 -47 -8.5t-45.5 -9.5t-45.5 -12.5t-40 -15t-38 -20t-30 -25.5t-25 -32t-14 -39.5t-6 -48.5q0 -88 69 -145.5t163 -57.5q67 0 144.5 29t141.5 81q58 47 84.5 119t26.5 195zM776 1421h94q-4 -59 -20 -99.5t-39 -58t-42 -24t-38 -6.5q-28 0 -59 8.5
t-115 38.5q-85 33 -129 33q-21 0 -35 -7t-21 -20.5t-9.5 -24.5t-4.5 -28h-88q13 188 131 188q54 0 265 -69q22 -11 41 -11q17 0 29.5 7t19 13.5t11.5 22.5t5.5 19t3.5 18z" />
    <glyph glyph-name="adieresis" unicode="&#xe4;" 
d="M248 754l-127 18q31 165 139 239t318 74q84 0 148.5 -13t107 -31t71.5 -55.5t44 -67t22.5 -86t8.5 -92.5t1 -105q0 -9 -2 -141.5t-2 -157.5q0 -133 13 -194.5t52 -141.5h-137q-18 47 -25.5 77t-13.5 85q-22 -24 -38.5 -40t-58.5 -47t-84.5 -50t-109.5 -34.5t-141 -15.5
q-88 0 -155.5 26t-106 69t-57.5 94t-19 106q0 148 119 238q25 20 49.5 32.5t94.5 30.5t180 33q219 29 317 64v37q0 38 -0.5 57.5t-6 55t-15 55t-30 45t-49.5 39t-74 23t-103 9.5q-57 0 -104 -9.5t-79 -23t-57.5 -36t-39 -40.5t-25.5 -46t-15.5 -42zM856 502v69
q-97 -37 -338 -79q-32 -6 -47 -8.5t-45.5 -9.5t-45.5 -12.5t-40 -15t-38 -20t-30 -25.5t-25 -32t-14 -39.5t-6 -48.5q0 -88 69 -145.5t163 -57.5q67 0 144.5 29t141.5 81q58 47 84.5 119t26.5 195zM354 1386h123v-174h-123v174zM663 1386h123v-174h-123v174z" />
    <glyph glyph-name="aring" unicode="&#xe5;" 
d="M248 754l-127 18q31 165 139 239t318 74q84 0 148.5 -13t107 -31t71.5 -55.5t44 -67t22.5 -86t8.5 -92.5t1 -105q0 -9 -2 -141.5t-2 -157.5q0 -133 13 -194.5t52 -141.5h-137q-18 47 -25.5 77t-13.5 85q-22 -24 -38.5 -40t-58.5 -47t-84.5 -50t-109.5 -34.5t-141 -15.5
q-88 0 -155.5 26t-106 69t-57.5 94t-19 106q0 148 119 238q25 20 49.5 32.5t94.5 30.5t180 33q219 29 317 64v37q0 38 -0.5 57.5t-6 55t-15 55t-30 45t-49.5 39t-74 23t-103 9.5q-57 0 -104 -9.5t-79 -23t-57.5 -36t-39 -40.5t-25.5 -46t-15.5 -42zM856 502v69
q-97 -37 -338 -79q-32 -6 -47 -8.5t-45.5 -9.5t-45.5 -12.5t-40 -15t-38 -20t-30 -25.5t-25 -32t-14 -39.5t-6 -48.5q0 -88 69 -145.5t163 -57.5q67 0 144.5 29t141.5 81q58 47 84.5 119t26.5 195zM749 1333q0 -74 -52.5 -126t-127.5 -52q-74 0 -126 52.5t-52 125.5
q0 75 52 127.5t126 52.5q75 0 127.5 -52.5t52.5 -127.5zM684 1335q0 46 -33.5 79.5t-79.5 33.5q-47 0 -81 -33.5t-34 -79.5q0 -47 34 -80.5t81 -33.5q46 0 79.5 33.5t33.5 80.5z" />
    <glyph glyph-name="ae" unicode="&#xe6;" horiz-adv-x="1820" 
d="M1726 512h-788q1 -213 89 -323.5t241 -110.5q50 0 93 11t72.5 25.5t54.5 40.5t39 45t27.5 50t18 45t12.5 39l133 -21q-11 -30 -18 -47t-28 -57.5t-41.5 -66.5t-56.5 -61t-75.5 -55.5t-96.5 -35.5t-122 -15q-74 0 -137.5 17t-101 37t-73.5 54.5t-48 51t-31 45.5
q-30 -28 -51.5 -46.5t-70 -52t-93 -53.5t-109.5 -36.5t-131 -16.5q-87 0 -154.5 25.5t-106 68t-58 92t-19.5 103.5q0 55 15.5 101t38 77t60 56t68.5 38.5t79 25.5t74.5 16t70.5 10q204 29 313 67v37q0 133 -18 172q-57 119 -244 119q-141 0 -208.5 -59t-94.5 -174l-129 20
q6 30 10 47.5t18.5 54.5t32.5 61.5t52.5 56t78 50t109 32t145.5 13.5q74 0 132.5 -12t92 -26.5t60.5 -40.5t37 -41t24 -41q22 26 35.5 40t47 40.5t66.5 41t87 27t115 12.5q227 0 358 -172q104 -137 104 -401zM940 614h651q-1 86 -23.5 153t-56 106.5t-77.5 65.5t-84 35
t-80 9q-146 0 -234 -102t-96 -267zM815 397v156q-1 0 -57 -14q-143 -35 -273 -52q-258 -37 -258 -213q0 -24 7 -49t24.5 -52t43.5 -47.5t69 -34t96 -13.5q173 0 287 123q26 28 41.5 79t17.5 76.5t2 40.5z" />
    <glyph glyph-name="ccedilla" unicode="&#xe7;" 
d="M1032 762l-131 -21q-34 115 -120.5 178.5t-207.5 63.5q-43 0 -86.5 -11t-92 -41.5t-85 -77t-60.5 -126.5t-24 -182q0 -208 93.5 -337.5t261.5 -129.5q50 0 94 12.5t74.5 28.5t59 45.5t44 50t33 56t23 49t16.5 42.5l123 -18q-7 -29 -14.5 -53.5t-24.5 -63t-38 -69
t-56.5 -65t-78 -58t-104 -40.5t-133.5 -20l-10 -61q178 -4 178 -139q0 -35 -15 -63t-36 -45.5t-53.5 -30t-58.5 -18.5t-60 -9t-48.5 -3.5t-33.5 -0.5q-39 0 -74 4v86q41 -4 72 -4q192 0 192 92q0 17 -6.5 30t-21.5 20t-27 11.5t-35 6t-32 2t-31 0.5l20 124
q-77 6 -140.5 32.5t-106 63.5t-75.5 86t-52 97.5t-30.5 102t-15.5 94t-4 79.5q0 74 12.5 144.5t46 146.5t85.5 132.5t140 93t200 36.5q117 0 188 -23t135 -79q43 -39 72.5 -84t39 -72t19.5 -65z" />
    <glyph glyph-name="egrave" unicode="&#xe8;" 
d="M1047 516h-818q3 -199 94.5 -318.5t262.5 -119.5q48 0 90 11.5t71.5 27t56.5 42t42 46.5t30.5 51t20.5 44t14 36l123 -21q-9 -26 -14 -39t-19.5 -44.5t-26.5 -50.5t-34.5 -49t-45 -49.5t-56.5 -41.5t-70.5 -35t-85 -22t-102.5 -9q-227 0 -354.5 149t-127.5 406
q0 255 127 405t357 150q316 0 419 -281q43 -115 46 -288zM231 618h684q-7 82 -30 146.5t-55.5 104.5t-75 66.5t-85.5 37t-91 10.5q-18 0 -37 -1.5t-52 -10t-61.5 -22.5t-62 -41.5t-59 -64.5t-46.5 -95.5t-29 -129.5zM555 1466l129 -264h-102l-226 264h199z" />
    <glyph glyph-name="eacute" unicode="&#xe9;" 
d="M1047 516h-818q3 -199 94.5 -318.5t262.5 -119.5q48 0 90 11.5t71.5 27t56.5 42t42 46.5t30.5 51t20.5 44t14 36l123 -21q-9 -26 -14 -39t-19.5 -44.5t-26.5 -50.5t-34.5 -49t-45 -49.5t-56.5 -41.5t-70.5 -35t-85 -22t-102.5 -9q-227 0 -354.5 149t-127.5 406
q0 255 127 405t357 150q316 0 419 -281q43 -115 46 -288zM231 618h684q-7 82 -30 146.5t-55.5 104.5t-75 66.5t-85.5 37t-91 10.5q-18 0 -37 -1.5t-52 -10t-61.5 -22.5t-62 -41.5t-59 -64.5t-46.5 -95.5t-29 -129.5zM585 1466h199l-225 -264h-103z" />
    <glyph glyph-name="ecircumflex" unicode="&#xea;" 
d="M1047 516h-818q3 -199 94.5 -318.5t262.5 -119.5q48 0 90 11.5t71.5 27t56.5 42t42 46.5t30.5 51t20.5 44t14 36l123 -21q-9 -26 -14 -39t-19.5 -44.5t-26.5 -50.5t-34.5 -49t-45 -49.5t-56.5 -41.5t-70.5 -35t-85 -22t-102.5 -9q-227 0 -354.5 149t-127.5 406
q0 255 127 405t357 150q316 0 419 -281q43 -115 46 -288zM231 618h684q-7 82 -30 146.5t-55.5 104.5t-75 66.5t-85.5 37t-91 10.5q-18 0 -37 -1.5t-52 -10t-61.5 -22.5t-62 -41.5t-59 -64.5t-46.5 -95.5t-29 -129.5zM487 1466h166l197 -266h-137l-140 184l-139 -184h-143z
" />
    <glyph glyph-name="edieresis" unicode="&#xeb;" 
d="M1047 516h-818q3 -199 94.5 -318.5t262.5 -119.5q48 0 90 11.5t71.5 27t56.5 42t42 46.5t30.5 51t20.5 44t14 36l123 -21q-9 -26 -14 -39t-19.5 -44.5t-26.5 -50.5t-34.5 -49t-45 -49.5t-56.5 -41.5t-70.5 -35t-85 -22t-102.5 -9q-227 0 -354.5 149t-127.5 406
q0 255 127 405t357 150q316 0 419 -281q43 -115 46 -288zM231 618h684q-7 82 -30 146.5t-55.5 104.5t-75 66.5t-85.5 37t-91 10.5q-18 0 -37 -1.5t-52 -10t-61.5 -22.5t-62 -41.5t-59 -64.5t-46.5 -95.5t-29 -129.5zM354 1386h123v-174h-123v174zM663 1386h123v-174h-123
v174z" />
    <glyph glyph-name="igrave" unicode="&#xec;" horiz-adv-x="454" 
d="M166 1061h123v-1061h-123v1061zM213 1466l129 -264h-102l-226 264h199z" />
    <glyph glyph-name="iacute" unicode="&#xed;" horiz-adv-x="454" 
d="M166 1061h123v-1061h-123v1061zM243 1466h199l-225 -264h-103z" />
    <glyph glyph-name="icircumflex" unicode="&#xee;" horiz-adv-x="454" 
d="M166 1061h123v-1061h-123v1061zM145 1466h166l197 -266h-137l-140 184l-139 -184h-143z" />
    <glyph glyph-name="idieresis" unicode="&#xef;" horiz-adv-x="454" 
d="M166 1061h123v-1061h-123v1061zM12 1386h123v-174h-123v174zM321 1386h123v-174h-123v174z" />
    <glyph glyph-name="eth" unicode="&#xf0;" 
d="M651 1360l223 106l35 -92l-194 -86q39 -42 68 -76t83.5 -114.5t89.5 -159t63 -194t28 -234.5q0 -34 -4.5 -73.5t-18 -93t-35 -103t-58.5 -98.5t-85 -85.5t-119 -59t-156 -22.5q-101 0 -183.5 33.5t-135.5 88.5t-89 128t-51.5 148.5t-15.5 154.5q0 242 122 391.5
t312 149.5q71 0 123 -21t121 -65l4 4q-74 151 -168 254l-288 -125l-37 80l258 117q-43 43 -77.5 70t-117.5 83h172q68 -49 131 -106zM915 496q0 288 -157 403q-47 33 -102 50.5t-101 17.5q-19 0 -40.5 -2.5t-55 -13.5t-63.5 -28.5t-62 -51t-54.5 -78.5t-37.5 -114t-15 -153
q0 -98 21 -176t55.5 -128t81 -83t95 -47t100.5 -14q136 0 235.5 116.5t99.5 301.5z" />
    <glyph glyph-name="ntilde" unicode="&#xf1;" 
d="M164 1061h123v-156h4q28 39 50.5 63t63 55t97 46.5t127.5 15.5q179 0 280 -112q27 -31 44.5 -69.5t23.5 -83.5t7 -67.5t1 -60.5v-692h-123v659q0 78 -8 130t-33 88q-32 47 -86 73.5t-119 26.5q-89 0 -170.5 -51t-121.5 -138q-22 -48 -29.5 -117t-7.5 -210v-461h-123v1061
zM776 1421h94q-4 -59 -20 -99.5t-39 -58t-42 -24t-38 -6.5q-28 0 -59 8.5t-115 38.5q-85 33 -129 33q-21 0 -35 -7t-21 -20.5t-9.5 -24.5t-4.5 -28h-88q13 188 131 188q53 0 264 -69q22 -11 41 -11q17 0 29.5 7t19 14t12 21.5t6.5 19.5t3 18z" />
    <glyph glyph-name="ograve" unicode="&#xf2;" 
d="M1042 524q0 -120 -28.5 -218.5t-85 -173t-148.5 -116t-213 -41.5q-220 0 -347.5 152.5t-125.5 396.5q1 272 126.5 416.5t346.5 144.5q220 0 347.5 -145.5t127.5 -415.5zM911 524q0 218 -89.5 338.5t-250.5 120.5q-113 0 -192.5 -61t-116.5 -162.5t-37 -235.5
q0 -213 95.5 -329.5t252.5 -116.5q155 0 246.5 117.5t91.5 328.5zM555 1466l129 -264h-102l-226 264h199z" />
    <glyph glyph-name="oacute" unicode="&#xf3;" 
d="M1042 524q0 -120 -28.5 -218.5t-85 -173t-148.5 -116t-213 -41.5q-220 0 -347.5 152.5t-125.5 396.5q1 272 126.5 416.5t346.5 144.5q220 0 347.5 -145.5t127.5 -415.5zM911 524q0 218 -89.5 338.5t-250.5 120.5q-113 0 -192.5 -61t-116.5 -162.5t-37 -235.5
q0 -213 95.5 -329.5t252.5 -116.5q155 0 246.5 117.5t91.5 328.5zM585 1466h199l-225 -264h-103z" />
    <glyph glyph-name="ocircumflex" unicode="&#xf4;" 
d="M1042 524q0 -120 -28.5 -218.5t-85 -173t-148.5 -116t-213 -41.5q-220 0 -347.5 152.5t-125.5 396.5q1 272 126.5 416.5t346.5 144.5q220 0 347.5 -145.5t127.5 -415.5zM911 524q0 218 -89.5 338.5t-250.5 120.5q-113 0 -192.5 -61t-116.5 -162.5t-37 -235.5
q0 -213 95.5 -329.5t252.5 -116.5q155 0 246.5 117.5t91.5 328.5zM487 1466h166l197 -266h-137l-140 184l-139 -184h-143z" />
    <glyph glyph-name="otilde" unicode="&#xf5;" 
d="M1042 524q0 -120 -28.5 -218.5t-85 -173t-148.5 -116t-213 -41.5q-220 0 -347.5 152.5t-125.5 396.5q1 272 126.5 416.5t346.5 144.5q220 0 347.5 -145.5t127.5 -415.5zM911 524q0 218 -89.5 338.5t-250.5 120.5q-113 0 -192.5 -61t-116.5 -162.5t-37 -235.5
q0 -213 95.5 -329.5t252.5 -116.5q155 0 246.5 117.5t91.5 328.5zM776 1421h94q-4 -59 -20 -99.5t-39 -58t-42 -24t-38 -6.5q-28 0 -59 8.5t-115 38.5q-85 33 -129 33q-21 0 -35 -7t-21 -20.5t-9.5 -24.5t-4.5 -28h-88q13 188 131 188q53 0 264 -69q22 -11 41 -11
q17 0 29.5 7t19 14t12 21.5t6.5 19.5t3 18z" />
    <glyph glyph-name="odieresis" unicode="&#xf6;" 
d="M1042 524q0 -120 -28.5 -218.5t-85 -173t-148.5 -116t-213 -41.5q-220 0 -347.5 152.5t-125.5 396.5q1 272 126.5 416.5t346.5 144.5q220 0 347.5 -145.5t127.5 -415.5zM911 524q0 218 -89.5 338.5t-250.5 120.5q-113 0 -192.5 -61t-116.5 -162.5t-37 -235.5
q0 -213 95.5 -329.5t252.5 -116.5q155 0 246.5 117.5t91.5 328.5zM354 1386h123v-174h-123v174zM663 1386h123v-174h-123v174z" />
    <glyph glyph-name="divide" unicode="&#xf7;" horiz-adv-x="1351" 
d="M139 768h1073v-94h-1073v94zM602 1137h148v-148h-148v148zM602 453h148v-148h-148v148z" />
    <glyph glyph-name="oslash" unicode="&#xf8;" 
d="M281 72l-107 -142l-68 45l117 154q-25 32 -43.5 60.5t-40 76.5t-33.5 113t-12 143q0 76 11.5 148t44.5 149.5t84 134.5t137.5 94t197.5 37q95 0 163.5 -22t135.5 -78l101 133l65 -57l-104 -137q112 -165 112 -385q0 -175 -39.5 -277t-105.5 -164q-132 -123 -330 -123
q-169 0 -286 97zM850 819l-498 -653q88 -88 221 -88q108 0 186 59.5t115 159t37 227.5q0 180 -61 295zM299 231l500 662q-87 90 -226 90q-158 0 -253 -118t-95 -330q0 -182 74 -304z" />
    <glyph glyph-name="ugrave" unicode="&#xf9;" 
d="M975 0h-123v158h-4q-28 -39 -50.5 -64t-63 -56t-97 -47t-127.5 -16q-170 0 -277 113q-29 30 -46.5 68.5t-24 84.5t-7.5 67.5t-1 60.5v692h122v-658q0 -160 41 -219q33 -46 87 -73t118 -27q89 0 171 51.5t122 138.5q21 46 29 118t8 210v459h123v-1061zM555 1466l129 -264
h-102l-226 264h199z" />
    <glyph glyph-name="uacute" unicode="&#xfa;" 
d="M975 0h-123v158h-4q-28 -39 -50.5 -64t-63 -56t-97 -47t-127.5 -16q-170 0 -277 113q-29 30 -46.5 68.5t-24 84.5t-7.5 67.5t-1 60.5v692h122v-658q0 -160 41 -219q33 -46 87 -73t118 -27q89 0 171 51.5t122 138.5q21 46 29 118t8 210v459h123v-1061zM585 1466h199
l-225 -264h-103z" />
    <glyph glyph-name="ucircumflex" unicode="&#xfb;" 
d="M975 0h-123v158h-4q-28 -39 -50.5 -64t-63 -56t-97 -47t-127.5 -16q-170 0 -277 113q-29 30 -46.5 68.5t-24 84.5t-7.5 67.5t-1 60.5v692h122v-658q0 -160 41 -219q33 -46 87 -73t118 -27q89 0 171 51.5t122 138.5q21 46 29 118t8 210v459h123v-1061zM487 1466h166
l197 -266h-137l-140 184l-139 -184h-143z" />
    <glyph glyph-name="udieresis" unicode="&#xfc;" 
d="M975 0h-123v158h-4q-28 -39 -50.5 -64t-63 -56t-97 -47t-127.5 -16q-170 0 -277 113q-29 30 -46.5 68.5t-24 84.5t-7.5 67.5t-1 60.5v692h122v-658q0 -160 41 -219q33 -46 87 -73t118 -27q89 0 171 51.5t122 138.5q21 46 29 118t8 210v459h123v-1061zM354 1386h123v-174
h-123v174zM663 1386h123v-174h-123v174z" />
    <glyph glyph-name="yacute" unicode="&#xfd;" horiz-adv-x="1024" 
d="M35 1061h137l348 -918l365 918h121l-502 -1272q-46 -118 -105.5 -168.5t-140.5 -50.5q-40 0 -119 18l-14 125q78 -16 113 -16q60 0 88 24.5t55 92.5l74 186zM528 1466h199l-225 -264h-103z" />
    <glyph glyph-name="thorn" unicode="&#xfe;" horiz-adv-x="1251" 
d="M285 162v-568h-123v1872h123v-577h4q18 26 34.5 46.5t51.5 50.5t74.5 50t100.5 34.5t132 14.5q107 0 191.5 -35.5t136.5 -91.5t86 -130t47.5 -145t13.5 -144q0 -38 -4 -79.5t-17 -98.5t-34 -108t-58.5 -103.5t-86.5 -90t-122 -61t-161 -23.5q-82 0 -148 17.5t-112 50
t-71.5 57.5t-53.5 62h-4zM1026 528q0 113 -29 202t-79 143t-112.5 82t-133.5 28q-138 0 -244 -86q-65 -52 -104 -140.5t-39 -242.5q0 -110 30.5 -195.5t83.5 -137t120 -77.5t145 -26q151 0 256.5 119.5t105.5 330.5z" />
    <glyph glyph-name="ydieresis" unicode="&#xff;" horiz-adv-x="1024" 
d="M35 1061h137l348 -918l365 918h121l-502 -1272q-46 -118 -105.5 -168.5t-140.5 -50.5q-40 0 -119 18l-14 125q78 -16 113 -16q60 0 88 24.5t55 92.5l74 186zM297 1386h123v-174h-123v174zM606 1386h123v-174h-123v174z" />
    <glyph glyph-name="dotlessi" unicode="&#x131;" horiz-adv-x="454" 
d="M166 1061h123v-1061h-123v1061z" />
    <glyph glyph-name="Lslash" unicode="&#x141;" 
d="M180 1466h139v-622l336 284v-114l-336 -285v-606h740v-123h-879v612l-155 -131v117l155 131v737z" />
    <glyph glyph-name="lslash" unicode="&#x142;" horiz-adv-x="454" 
d="M166 1466h123v-622l145 114v-108l-145 -115v-735h-123v625l-146 -125v108l146 125v733z" />
    <glyph glyph-name="OE" unicode="&#x152;" horiz-adv-x="2048" 
d="M1128 1466h818v-123h-693v-528h641v-123h-641v-569h721v-123h-846v193h-4q-149 -218 -424 -218q-121 0 -225.5 46.5t-185.5 137t-127.5 238t-46.5 336.5q0 191 46 338.5t127 238t184.5 136t225.5 45.5q283 0 426 -219h4v194zM1114 608v277q0 74 -9 138.5t-35.5 131.5
t-69 114t-114.5 77t-167 30q-74 0 -136.5 -19t-107 -49t-80 -75t-57.5 -88.5t-38.5 -99t-24 -96.5t-12 -91.5t-5 -73t-0.5 -51.5q0 -149 30.5 -265.5t77 -186t110 -114.5t122 -61t119.5 -16q63 0 116 14t91 36t68.5 55.5t50 66.5t34 76.5t21.5 76.5t11 75t4.5 65.5t0.5 52.5
z" />
    <glyph glyph-name="oe" unicode="&#x153;" horiz-adv-x="1933" 
d="M1841 516h-790q1 -30 3.5 -56.5t11 -73.5t21.5 -85t38 -81.5t58.5 -73t84.5 -49t114 -19.5q47 0 87 9t68.5 21.5t53 35t39 40.5t30 49t22.5 48.5t18 48.5l127 -21q-20 -67 -50 -120.5t-60.5 -87.5t-70 -59t-71.5 -37.5t-73 -19.5t-65 -8.5t-57 -1.5q-149 0 -239.5 54
t-155.5 172q-114 -226 -397 -226q-108 0 -177.5 21.5t-134.5 77.5q-35 31 -62.5 65t-56.5 87.5t-45 130t-16 169.5q0 264 131.5 411.5t354.5 147.5q278 0 403 -225q69 115 162 170t231 55q232 0 365 -176q53 -70 73.5 -168t24.5 -225zM1051 618h659q1 157 -94.5 261
t-235.5 104q-14 0 -27 -0.5t-46.5 -7.5t-61.5 -19.5t-63.5 -40t-61 -64.5t-45 -97.5t-24.5 -135.5zM920 514q0 469 -328 469q-77 0 -142 -28t-115.5 -83t-79 -143t-28.5 -201q0 -86 19.5 -163.5t59.5 -143t109 -104.5t160 -39q71 0 127.5 20.5t91.5 50.5t61 75t38 82
t18.5 85.5t7.5 71t1 51.5z" />
    <glyph glyph-name="Scaron" unicode="&#x160;" horiz-adv-x="1251" 
d="M1108 1079l-135 -6q-1 21 -3.5 39t-11.5 50.5t-22.5 59t-40 56.5t-61 50.5t-88 34t-119.5 13.5q-155 0 -248.5 -74.5t-93.5 -189.5q0 -56 21.5 -100t52.5 -71.5t81 -50t90.5 -33.5t98.5 -23q91 -19 144.5 -32.5t135.5 -47t127 -74.5t80 -112t35 -162q0 -54 -14 -108.5
t-51 -114t-93 -104.5t-149.5 -74.5t-210.5 -29.5q-500 0 -543 465l137 13q13 -122 60 -197q32 -51 77 -86t93 -51t87.5 -22.5t78.5 -6.5q108 0 195.5 33.5t142.5 104.5t55 169q0 46 -15.5 84.5t-36 65t-58 50t-65 36t-74.5 25.5t-68.5 17.5t-63.5 12.5q-54 10 -89.5 18
t-91 25t-93 36t-81 51t-69.5 70t-43.5 92.5t-17.5 119.5q0 79 30 149t86.5 124.5t147 86t202.5 31.5q300 0 418 -174q29 -43 46 -90t21 -76t7 -72zM709 1569h-166l-197 266h138l139 -184l139 184h144z" />
    <glyph glyph-name="scaron" unicode="&#x161;" horiz-adv-x="1024" 
d="M879 805l-121 -19q-12 37 -19.5 57.5t-28 51.5t-46.5 47t-71.5 28.5t-105.5 12.5q-117 0 -182 -45t-65 -127q0 -52 23.5 -86t93 -64t198.5 -57q87 -18 149.5 -40.5t114.5 -57.5t78.5 -86t26.5 -119q0 -66 -25 -123.5t-74 -103.5t-130 -72.5t-185 -26.5q-86 0 -154 16.5
t-114 43.5t-80 68t-53.5 85t-32.5 99l127 22q5 -20 9 -32t16 -39t25.5 -45.5t38 -42t54 -37.5t73.5 -24.5t95 -10.5q130 0 204.5 59t74.5 146q0 78 -69 123.5t-243 82.5q-183 38 -277.5 106.5t-94.5 192.5q0 35 9.5 71.5t35.5 78t66.5 73.5t109 53t155.5 21
q166 0 260.5 -61.5t133.5 -218.5zM596 1200h-166l-197 266h138l139 -184l139 184h144z" />
    <glyph glyph-name="Ydieresis" unicode="&#x178;" horiz-adv-x="1251" 
d="M12 1466h164l449 -704l456 704h158l-553 -833v-633h-139v633zM410 1755h122v-174h-122v174zM719 1755h123v-174h-123v174z" />
    <glyph glyph-name="Zcaron" unicode="&#x17d;" horiz-adv-x="1251" 
d="M131 1466h1036v-118l-958 -1225h979v-123h-1141v129l948 1214h-864v123zM709 1606h-166l-197 266h138l139 -184l139 184h144z" />
    <glyph glyph-name="zcaron" unicode="&#x17e;" horiz-adv-x="1024" 
d="M84 1061h860v-84l-737 -868h770v-109h-934v109l727 849h-686v103zM596 1200h-166l-197 266h138l139 -184l139 184h144z" />
    <glyph glyph-name="florin" unicode="&#x192;" 
d="M735 1061h223l-22 -92h-219l-248 -1139q-10 -47 -20.5 -79.5t-31.5 -69.5t-48.5 -59t-72.5 -37t-103 -15q-75 0 -179 31l23 100q59 -20 145 -20q120 0 150 98q0 1 8 34.5t20 89t21 97.5l209 969h-168l18 92h168l27 106l12 58q7 29 11.5 46.5t16 49t23.5 51.5t33.5 45
t47 39.5t62.5 24.5t81 10q61 0 182 -33l-21 -98q-82 20 -153 20q-77 0 -110 -45t-60 -164z" />
    <glyph glyph-name="circumflex" unicode="&#x2c6;" horiz-adv-x="681" 
d="M258 1466h166l197 -266h-138l-139 184l-139 -184h-144z" />
    <glyph glyph-name="caron" unicode="&#x2c7;" horiz-adv-x="681" 
d="M424 1200h-166l-197 266h138l139 -184l139 184h144z" />
    <glyph glyph-name="breve" unicode="&#x2d8;" horiz-adv-x="681" 
d="M61 1446h109q6 -52 29 -80q46 -57 149 -57q49 0 82.5 13.5t50.5 39t23 42t12 42.5h105q-13 -115 -87 -175.5t-186 -60.5q-114 0 -191.5 58.5t-95.5 177.5z" />
    <glyph glyph-name="dotaccent" unicode="&#x2d9;" horiz-adv-x="681" 
d="M258 1405h166v-193h-166v193z" />
    <glyph glyph-name="ring" unicode="&#x2da;" horiz-adv-x="681" 
d="M520 1333q0 -74 -52.5 -126t-127.5 -52q-74 0 -126 52.5t-52 125.5q0 75 52 127.5t126 52.5q75 0 127.5 -52.5t52.5 -127.5zM455 1335q0 46 -33.5 79.5t-79.5 33.5q-47 0 -81 -33.5t-34 -79.5q0 -47 34 -80.5t81 -33.5q46 0 79.5 33.5t33.5 80.5z" />
    <glyph glyph-name="ogonek" unicode="&#x2db;" horiz-adv-x="681" 
d="M246 20h92q-33 -102 -33 -167q0 -66 39 -110t107 -44q63 0 153 35v-86q-104 -51 -207 -51q-89 0 -140.5 61t-51.5 154q0 81 41 208z" />
    <glyph glyph-name="tilde" unicode="&#x2dc;" horiz-adv-x="681" 
d="M547 1421h94q-4 -59 -20 -99.5t-39 -58t-42 -24t-38 -6.5q-28 0 -59 8.5t-115 38.5q-85 33 -129 33q-21 0 -35 -7t-21 -20.5t-9.5 -24.5t-4.5 -28h-88q13 188 131 188q53 0 264 -69q22 -11 41 -11q17 0 29.5 7t19 14t12 21.5t6.5 19.5t3 18z" />
    <glyph glyph-name="hungarumlaut" unicode="&#x2dd;" horiz-adv-x="681" 
d="M561 1466h199l-225 -264h-103zM264 1466h199l-225 -264h-103z" />
    <glyph glyph-name="endash" unicode="&#x2013;" horiz-adv-x="1024" 
d="M-12 559h1048v-94h-1048v94z" />
    <glyph glyph-name="emdash" unicode="&#x2014;" horiz-adv-x="2048" 
d="M-12 559h2072v-94h-2072v94z" />
    <glyph glyph-name="quoteleft" unicode="&#x2018;" horiz-adv-x="454" 
d="M313 999h-174v195q0 88 26.5 151.5t104.5 120.5l54 -71q-56 -43 -73 -80t-18 -121h80v-195z" />
    <glyph glyph-name="quoteright" unicode="&#x2019;" horiz-adv-x="454" 
d="M141 1466h174v-194q0 -88 -26.5 -152t-104.5 -121l-53 72q56 43 72.5 79.5t17.5 121.5h-80v194z" />
    <glyph glyph-name="quotesinglbase" unicode="&#x201a;" horiz-adv-x="454" 
d="M141 195h174v-195q0 -88 -26.5 -151.5t-104.5 -120.5l-53 71q56 43 72.5 79.5t17.5 121.5h-80v195z" />
    <glyph glyph-name="quotedblleft" unicode="&#x201c;" horiz-adv-x="796" 
d="M653 999h-174v195q0 88 26.5 151.5t104.5 120.5l54 -71q-56 -43 -73 -80t-18 -121h80v-195zM307 999h-174v195q0 88 26.5 151.5t104.5 120.5l53 -71q-56 -43 -72.5 -79.5t-17.5 -121.5h80v-195z" />
    <glyph glyph-name="quotedblright" unicode="&#x201d;" horiz-adv-x="796" 
d="M143 1466h172v-196q0 -62 -11.5 -110.5t-33.5 -79.5t-40.5 -48.5t-45.5 -34.5l-51 76q53 34 72.5 79t19.5 118h-82v196zM492 1466h172v-196q0 -62 -12 -110.5t-34.5 -79.5t-40.5 -48t-45 -35l-51 76q53 34 72.5 79t19.5 118h-81v196z" />
    <glyph glyph-name="quotedblbase" unicode="&#x201e;" horiz-adv-x="796" 
d="M143 195h174v-195q0 -88 -26.5 -151.5t-104.5 -120.5l-53 71q56 43 72.5 79.5t17.5 121.5h-80v195zM489 195h175v-195q0 -87 -27 -151t-105 -121l-53 71q56 43 72.5 79.5t17.5 121.5h-80v195z" />
    <glyph glyph-name="dagger" unicode="&#x2020;" 
d="M504 1446h129v-445h416v-110h-416v-1239h-129v1239h-414v110h414v445z" />
    <glyph glyph-name="daggerdbl" unicode="&#x2021;" 
d="M504 1446h129v-397h416v-111h-416v-778h416v-111h-416v-397h-129v397h-414v111h414v778h-414v111h414v397z" />
    <glyph glyph-name="bullet" unicode="&#x2022;" horiz-adv-x="1024" 
d="M762 717q0 -104 -73.5 -177t-176.5 -73t-176.5 73t-73.5 177q0 103 73.5 176.5t176.5 73.5t176.5 -73.5t73.5 -176.5z" />
    <glyph glyph-name="ellipsis" unicode="&#x2026;" horiz-adv-x="2048" 
d="M252 195h174v-195h-174v195zM1620 195h174v-195h-174v195zM936 195h174v-195h-174v195z" />
    <glyph glyph-name="perthousand" unicode="&#x2030;" horiz-adv-x="2048" 
d="M1233 332q0 56 -8.5 105t-28.5 94t-59.5 71.5t-94.5 26.5q-44 0 -78.5 -18t-54.5 -46.5t-33 -69t-17.5 -79.5t-4.5 -84q0 -55 8 -102.5t27.5 -94t58.5 -73.5t94 -27q44 0 78.5 18.5t55.5 48t34 70t18 79t5 81.5zM956 1491h103l-637 -1544h-103zM524 1106q0 57 -8.5 105.5
t-28.5 93.5t-59 71.5t-94 26.5t-94 -26t-58.5 -72t-28 -94t-8.5 -105q0 -55 8.5 -103t28 -94t58.5 -73t94 -27t94 27t59 73t28.5 94.5t8.5 102.5zM1343 332q0 -189 -85 -287t-216 -98t-215 98t-84 287q0 188 84.5 286.5t214.5 98.5q131 0 216 -98.5t85 -286.5zM635 1106
q0 -189 -85 -287t-216 -98t-215 98t-84 287q0 188 84.5 286.5t214.5 98.5q131 0 216 -98.5t85 -286.5zM1903 332q0 56 -8.5 105t-28.5 94t-59.5 71.5t-94.5 26.5q-44 0 -78.5 -18t-54.5 -46.5t-33 -69t-17.5 -79.5t-4.5 -84q0 -55 8 -102.5t27.5 -94t58.5 -73.5t94 -27
q44 0 78.5 18.5t55.5 48t34 70t18 79t5 81.5zM2013 332q0 -189 -85 -287t-216 -98t-215 98t-84 287q0 188 84.5 286.5t214.5 98.5q131 0 216 -98.5t85 -286.5z" />
    <glyph glyph-name="guilsinglleft" unicode="&#x2039;" horiz-adv-x="796" 
d="M494 979h106l-260 -449l260 -458h-106l-297 458z" />
    <glyph glyph-name="guilsinglright" unicode="&#x203a;" horiz-adv-x="796" 
d="M303 72h-106l260 450l-260 457h106l297 -457z" />
    <glyph glyph-name="fraction" unicode="&#x2044;" horiz-adv-x="342" 
d="M664 1491h110l-1091 -1544h-117z" />
    <glyph glyph-name="trademark" unicode="&#x2122;" horiz-adv-x="1925" 
d="M205 1466h635v-88h-269v-729h-100v729h-266v88zM934 1466h153l203 -653h4l211 653h154v-817h-92v729h-4l-238 -729h-70l-225 729h-4v-729h-92v817z" />
    <glyph glyph-name="minus" unicode="&#x2212;" horiz-adv-x="1351" 
d="M139 768h1073v-94h-1073v94z" />
    </font>
</defs>
</svg>
