<?xml version="1.0" standalone="no"?>
<!DOCTYPE svg PUBLIC "-//W3C//DTD SVG 1.1//EN" "http://www.w3.org/Graphics/SVG/1.1/DTD/svg11.dtd" >
<svg xmlns="http://www.w3.org/2000/svg" xmlns:xlink="http://www.w3.org/1999/xlink" version="1.1">
<metadata>
Created by FontForge 20170731 at Thu Mar  7 12:53:05 2019
 By Aleksey,,,
Copyright 2016 The Rokkit Project Authors (https://github.com/googlefonts/RokkittFont)
</metadata>
<defs>
<font id="Rokkitt-ExtraBold" horiz-adv-x="456" >
  <font-face 
    font-family="Rokkitt ExtraBold"
    font-weight="800"
    font-stretch="normal"
    units-per-em="1000"
    panose-1="0 0 0 0 0 0 0 0 0 0"
    ascent="800"
    descent="-200"
    x-height="400"
    cap-height="578"
    bbox="-241 -301 1331 1070"
    underline-thickness="50"
    underline-position="-175"
    unicode-range="U+000D-FB02"
  />
<missing-glyph horiz-adv-x="518" 
d="M40 0v563h438v-563h-438zM100 70h318v423h-318v-423z" />
    <glyph glyph-name="fi" unicode="fi" horiz-adv-x="573" 
d="M19 0v88h50v225h-51v87h51v37q0 67 28 114.5t81.5 73t128.5 25.5q59 0 103 -13t69 -37.5t25 -59.5q0 -33 -20.5 -53t-55.5 -20q-36 0 -57 20t-21 53q0 9 3 14q-7 5 -19 8t-24 3q-42 0 -67.5 -30.5t-25.5 -94.5v-40h293v-312h50v-88h-249v88h51v225h-145v-225h63v-88h-261
z" />
    <glyph glyph-name="f_f" unicode="ff" horiz-adv-x="602" 
d="M19 0v88h52v225h-53v87h53v37q0 76 44 120t125 44q78 0 118.5 -34.5t47.5 -93.5l-103 -17q-1 27 -10.5 42.5t-30.5 15.5t-32 -16.5t-11 -53.5v-44h137v51q0 47 20 84t60.5 59t103.5 22q52 0 86.5 -14.5t54.5 -42t25 -68.5l-113 -20q-1 27 -11 42t-32 15t-33.5 -16
t-11.5 -58v-54h69v-87h-69v-225h68v-88h-272v88h55v225h-137v-225h59v-88h-259z" />
    <glyph glyph-name=".notdef" horiz-adv-x="518" 
d="M40 0v563h438v-563h-438zM100 70h318v423h-318v-423z" />
    <glyph glyph-name=".null" horiz-adv-x="0" 
 />
    <glyph glyph-name="nonmarkingreturn" horiz-adv-x="333" 
 />
    <glyph glyph-name="NULL" horiz-adv-x="0" 
 />
    <glyph glyph-name="NULL" horiz-adv-x="0" 
 />
    <glyph glyph-name="CR" unicode="&#xd;" horiz-adv-x="316" 
 />
    <glyph glyph-name="space" unicode=" " horiz-adv-x="316" 
 />
    <glyph glyph-name="exclam" unicode="!" horiz-adv-x="218" 
d="M61 172l-26 246v181h131v-181l-26 -246h-79zM104 -9q-33 0 -53.5 19.5t-20.5 48.5t20.5 48t53.5 19t53.5 -19t20.5 -48t-20.5 -48.5t-53.5 -19.5z" />
    <glyph glyph-name="quotedbl" unicode="&#x22;" horiz-adv-x="375" 
d="M63 427l-19 225h123l-18 -225h-86zM227 427l-19 225h123l-18 -225h-86z" />
    <glyph glyph-name="numbersign" unicode="#" horiz-adv-x="635" 
d="M105 0l29 145h-101l15 78h105l26 130h-102l15 79h105l27 132h102l-28 -132h102l27 132h102l-28 -132h110l-14 -79h-113l-26 -130h107l-14 -78h-111l-31 -145h-100l29 145h-102l-30 -145h-101zM254 223h102l26 130h-101z" />
    <glyph glyph-name="dollar" unicode="$" horiz-adv-x="610" 
d="M278 -85v746h53v-746h-53zM350 -10q-42 0 -85 13t-76 38t-44 60h22v-101h-113v197h101q14 -33 38 -58t56 -39t71 -14q33 0 52.5 14.5t19.5 43.5q0 21 -9 34.5t-29.5 22t-54.5 15.5l-65 13q-93 20 -138.5 65t-45.5 122q0 51 24 90t67.5 60.5t100.5 21.5q69 0 118 -24
t79 -69h-23v83h105v-169h-96q-10 20 -28.5 39t-45.5 31.5t-65 12.5q-33 0 -50.5 -13.5t-17.5 -38.5q0 -28 25 -44t81 -27l35 -7q65 -12 107.5 -35.5t63 -61t20.5 -92.5q0 -57 -25 -97.5t-69.5 -63t-105.5 -22.5z" />
    <glyph glyph-name="percent" unicode="%" horiz-adv-x="850" 
d="M209 291q-46 0 -80.5 19t-54 53t-19.5 78t19.5 77t54 51.5t80.5 18.5q69 0 112 -40.5t43 -106.5q0 -44 -19.5 -78t-54.5 -53t-81 -19zM209 362q27 1 42.5 21.5t15.5 57.5q0 36 -15.5 57.5t-42.5 20.5t-43 -21.5t-16 -56.5q0 -37 16 -58.5t43 -20.5zM639 -10
q-45 0 -80 18.5t-54.5 52.5t-19.5 78q0 67 43 107.5t111 40.5q70 0 113 -40.5t43 -107.5q0 -44 -19.5 -78t-54.5 -52.5t-82 -18.5zM639 60q29 1 44.5 22t15.5 57t-15.5 57.5t-44.5 20.5q-26 -1 -41.5 -21.5t-15.5 -56.5t15.5 -58t41.5 -21zM200 0l378 579h71l-376 -579h-73z
" />
    <glyph glyph-name="ampersand" unicode="&#x26;" horiz-adv-x="757" 
d="M276 -11q-71 0 -120 26.5t-73.5 68t-24.5 87.5q0 39 19.5 68t52 51.5t73.5 40.5q-20 24 -32.5 50.5t-12.5 67.5q0 33 20 61t60 46t97 18q53 0 88.5 -18t54 -45.5t18.5 -56.5q0 -41 -24 -74.5t-88 -65.5l89 -95q13 19 23 42t16.5 46.5t11.5 42.5h160v-88l-70 -1
q-7 -21 -17.5 -42t-22 -41t-27.5 -40l47 -47h91v-91h-187l-42 53q-34 -30 -79 -47t-101 -17zM295 88q28 0 49.5 8.5t41.5 32.5l-121 132q-28 -15 -43.5 -36t-15.5 -50q0 -14 9.5 -35t29 -36.5t50.5 -15.5zM323 387q32 14 42.5 30t10.5 37q0 22 -11.5 32.5t-29.5 10.5
q-23 0 -32.5 -10t-9.5 -28q0 -22 9 -38.5t21 -33.5z" />
    <glyph glyph-name="quotesingle" unicode="'" horiz-adv-x="210" 
d="M63 427l-19 225h123l-18 -225h-86z" />
    <glyph glyph-name="parenleft" unicode="(" horiz-adv-x="358" 
d="M315 -100q-80 26 -138 77.5t-89.5 122t-31.5 151.5q0 82 31.5 152t89.5 122t138 78l6 -75q-42 -29 -68.5 -70t-39.5 -93t-13 -114q0 -61 13 -113t39.5 -93t67.5 -71z" />
    <glyph glyph-name="parenright" unicode=")" horiz-adv-x="358" 
d="M49 -100l-4 74q41 30 67.5 71t39.5 93t13 113q0 62 -13 114t-40 93t-68 70l5 75q80 -26 138 -78t89.5 -122t31.5 -152q0 -81 -31.5 -151.5t-89.5 -122t-138 -77.5z" />
    <glyph glyph-name="asterisk" unicode="*" horiz-adv-x="449" 
d="M169 202l-105 75l125 101l-154 7l31 112l145 -79l-47 158h128l-48 -158l147 79l29 -112l-152 -7l124 -101l-105 -75l-60 158z" />
    <glyph glyph-name="plus" unicode="+" horiz-adv-x="593" 
d="M252 61v181h-175v82h175v182h89v-182h174v-82h-174v-181h-89z" />
    <glyph glyph-name="comma" unicode="," horiz-adv-x="275" 
d="M62 -132v50q30 1 44 20t14 62h-59v125h134v-100q0 -79 -30.5 -118t-102.5 -39z" />
    <glyph glyph-name="hyphen" unicode="-" horiz-adv-x="383" 
d="M51 191v91h281v-91h-281z" />
    <glyph glyph-name="period" unicode="." horiz-adv-x="273" 
d="M60 0v124h133v-124h-133z" />
    <glyph glyph-name="slash" unicode="/" horiz-adv-x="398" 
d="M10 -140l287 748h123l-287 -748h-123z" />
    <glyph glyph-name="zero" unicode="0" horiz-adv-x="577" 
d="M288 -11q-121 0 -186.5 79.5t-65.5 221.5q0 141 65.5 219.5t186.5 78.5t186 -78.5t65 -219.5q0 -142 -65 -221.5t-186 -79.5zM288 103q49 0 72.5 46.5t23.5 140.5q0 92 -23.5 138.5t-72.5 46.5q-50 0 -73 -46.5t-23 -138.5q0 -94 23 -140.5t73 -46.5z" />
    <glyph glyph-name="one" unicode="1" horiz-adv-x="410" 
d="M34 0v95h100v379l-96 -12l-4 86l263 30v-483h98v-95h-361z" />
    <glyph glyph-name="two" unicode="2" horiz-adv-x="532" 
d="M44 0v92l177 166q34 33 57 58t34.5 47.5t11.5 47.5q0 30 -16.5 50t-51.5 20q-39 0 -59.5 -25.5t-20.5 -63.5q0 -13 1.5 -26.5t4.5 -28.5h-130q-4 16 -6.5 33t-2.5 34q0 51 24.5 92.5t74 66.5t124.5 25q98 0 152.5 -44t54.5 -116q0 -41 -17.5 -77.5t-54 -76t-93.5 -90.5
l-131 -123l-22 37h228v89h96v-187h-435z" />
    <glyph glyph-name="three" unicode="3" horiz-adv-x="550" 
d="M274 -11q-99 0 -159 41t-85 114l121 49q14 -47 45 -70t69 -23q36 0 59 18.5t23 51.5q0 40 -28 61t-88 21v84q52 0 81 20.5t29 58.5q0 30 -18.5 48t-53.5 18q-39 0 -63.5 -24t-32.5 -66l-125 42q11 53 44 87t82 51t108 17q101 0 154 -44.5t53 -111.5q0 -40 -18 -70
t-50 -48.5t-72 -24.5v19q65 -7 109 -44t44 -106q0 -53 -28.5 -90.5t-80 -58t-119.5 -20.5z" />
    <glyph glyph-name="four" unicode="4" horiz-adv-x="567" 
d="M198 0v94h101v81h-257l-12 67l275 336h142v-322h82v-81h-82v-81h70v-94h-319zM147 256h152v191z" />
    <glyph glyph-name="five" unicode="5" horiz-adv-x="565" 
d="M280 -11q-71 0 -127 23.5t-103 60.5l57 93q37 -28 74 -45.5t83 -17.5q49 0 76 24.5t27 65.5q0 38 -23.5 60.5t-64.5 22.5q-30 0 -54.5 -11.5t-44.5 -30.5l-102 38l8 306h398v-152h-98v58h-195l-5 -192l-31 32q29 26 70 42t96 16q91 0 140 -51.5t49 -135.5q0 -66 -31 -112
t-83 -70t-116 -24z" />
    <glyph glyph-name="six" unicode="6" horiz-adv-x="543" 
d="M271 -11q-69 0 -120.5 24.5t-79 70.5t-27.5 109q0 41 9.5 76.5t31 74.5t55.5 90l135 197l106 -70l-169 -248l-18 27q10 16 25 27.5t35.5 17.5t44.5 6q64 0 109.5 -24.5t70.5 -68.5t25 -103q0 -63 -29.5 -109t-82 -71.5t-121.5 -25.5zM275 96q41 0 62 27.5t21 73.5t-21 72
t-61 26q-25 0 -44 -12t-30 -33.5t-11 -53.5q0 -44 22 -72t62 -28z" />
    <glyph glyph-name="seven" unicode="7" horiz-adv-x="511" 
d="M129 0l187 483h-183v-87h-108v182h446v-90l-186 -488h-156z" />
    <glyph glyph-name="eight" unicode="8" horiz-adv-x="550" 
d="M273 -11q-71 0 -123 21t-80 58t-28 85q0 50 28 86t74 55q-40 21 -61.5 53.5t-21.5 75.5q0 51 27.5 87.5t76 57t111.5 20.5t111 -18t75 -52t27 -82q0 -51 -25 -84.5t-65 -53.5q52 -20 81 -52.5t29 -83.5t-30 -90.5t-83 -61t-123 -21.5zM271 64q39 0 60 25.5t21 65.5
t-25.5 63.5t-85.5 39.5q-17 -7 -29.5 -21.5t-20 -35t-7.5 -46.5q0 -40 23 -65.5t64 -25.5zM307 330q12 10 22.5 24.5t17 34t6.5 44.5q0 32 -16.5 53t-50.5 21t-52 -22.5t-18 -58.5q0 -38 23 -60.5t68 -35.5z" />
    <glyph glyph-name="nine" unicode="9" horiz-adv-x="543" 
d="M268 -54l-106 70l169 248l18 -27q-10 -15 -25.5 -26.5t-35.5 -18t-44 -6.5q-63 0 -109.5 25t-71.5 69t-25 102q0 64 29.5 110t82 71t121.5 25q70 0 121 -24.5t79 -70.5t28 -108q0 -41 -9.5 -77t-31 -75t-56.5 -90zM266 282q26 0 45 12t30 34t11 53q0 45 -22 72.5
t-62 27.5t-62 -27.5t-22 -73.5q0 -45 21.5 -71.5t60.5 -26.5z" />
    <glyph glyph-name="colon" unicode=":" horiz-adv-x="273" 
d="M60 0v124h133v-124h-133zM60 276v124h133v-124h-133z" />
    <glyph glyph-name="semicolon" unicode=";" horiz-adv-x="275" 
d="M62 -132v50q30 1 44 20t14 62h-59v125h134v-100q0 -79 -30.5 -118t-102.5 -39zM60 276v124h133v-124h-133z" />
    <glyph glyph-name="less" unicode="&#x3c;" horiz-adv-x="535" 
d="M478 53l-401 190v80l401 190v-97l-298 -133l298 -133v-97z" />
    <glyph glyph-name="equal" unicode="=" horiz-adv-x="586" 
d="M77 339v82h432v-82h-432zM77 148v82h432v-82h-432z" />
    <glyph glyph-name="greater" unicode="&#x3e;" horiz-adv-x="535" 
d="M57 53l401 190v80l-401 190v-97l298 -133l-298 -133v-97z" />
    <glyph glyph-name="question" unicode="?" horiz-adv-x="514" 
d="M176 172v16q0 34 9 58t27 43.5t45 40.5q32 25 47.5 44t15.5 50q0 34 -20 52.5t-57 18.5q-43 0 -65.5 -22t-22.5 -65h-130q1 71 32 114.5t83 64.5t117 21q100 0 155 -43.5t55 -116.5q0 -48 -23.5 -80t-64.5 -64q-29 -23 -46.5 -39t-25 -33.5t-7.5 -43.5v-16h-124zM238 -9
q-33 0 -53.5 19.5t-20.5 48.5t20.5 48t53.5 19t53.5 -19t20.5 -48t-20.5 -48.5t-53.5 -19.5z" />
    <glyph glyph-name="at" unicode="@" horiz-adv-x="718" 
d="M388 -30q-86 0 -149.5 25t-105 68.5t-61.5 97.5t-20 111q0 61 21.5 119t64 105t104 75t141.5 28q75 0 128.5 -22t87.5 -59t50 -83t16 -94q0 -45 -14 -88t-40 -76.5t-60.5 -52.5t-76.5 -18q-13 1 -23.5 7t-16.5 20t-7 36q-20 -31 -47.5 -47t-59.5 -16q-34 0 -64 17.5
t-49 52t-19 83.5q0 50 20 97.5t59.5 79t98.5 31.5q32 0 58 -16.5t37 -48.5l12 57h65l-50 -229q-7 -35 -6 -52t9 -18q13 -2 32.5 9.5t38 35t31.5 58t13 78.5q0 53 -25.5 99.5t-76 75.5t-124.5 29q-76 0 -135.5 -35t-93.5 -97t-34 -142q0 -75 31.5 -130.5t92 -87t147.5 -31.5
q54 0 99 14t81 41l34 -40q-42 -32 -94 -49.5t-120 -17.5zM332 158q31 0 56 24.5t39.5 63.5t14.5 79q0 42 -22 65.5t-60 23.5q-34 0 -58 -23.5t-36.5 -59.5t-12.5 -73q0 -40 19.5 -70t59.5 -30z" />
    <glyph glyph-name="A" unicode="A" horiz-adv-x="730" 
d="M22 0v102h59l141 373h-56v103h398v-103h-57l143 -373h58v-102h-294v102h64l-33 102h-179l-33 -102h56v-102h-267zM296 300h120l-55 175h-6z" />
    <glyph glyph-name="B" unicode="B" horiz-adv-x="657" 
d="M47 0v102h57v373h-57v103h334q111 0 162 -39t51 -102q0 -50 -27 -79.5t-84 -42.5q51 -8 82 -29.5t45 -52.5t14 -69q0 -52 -26 -89t-78.5 -56t-132.5 -19h-340zM274 103h79q51 0 73.5 21t22.5 57t-23 56.5t-74 20.5h-78v-155zM274 353h71q40 0 59 16.5t19 46.5t-19.5 44.5
t-62.5 14.5h-67v-122z" />
    <glyph glyph-name="C" unicode="C" horiz-adv-x="715" 
d="M365 -10q-71 0 -131 20.5t-104.5 59t-69 93.5t-24.5 125q0 92 40.5 159.5t110 104t159.5 36.5q63 0 110.5 -19t78 -52t41.5 -78l-40 29v110h112v-206h-96q-26 49 -65.5 74.5t-98.5 25.5q-55 0 -94.5 -23t-61 -63.5t-21.5 -95.5q0 -42 12 -75.5t33.5 -58t51.5 -37.5
t67 -13q41 0 72 15t52 44.5t31 72.5l133 -46q-14 -61 -53.5 -106.5t-101 -70.5t-143.5 -25z" />
    <glyph glyph-name="D" unicode="D" horiz-adv-x="732" 
d="M47 0v102h58v373h-58v103h343q77 0 134 -22.5t95.5 -61.5t57.5 -91t19 -112q0 -65 -19.5 -118.5t-57 -92t-95 -59.5t-133.5 -21h-344zM274 102h86q43 0 73 13t49.5 37.5t28.5 59.5t9 79q0 42 -9 76t-28 58t-49.5 37t-72.5 13h-87v-373z" />
    <glyph glyph-name="E" unicode="E" horiz-adv-x="651" 
d="M47 0v102h57v373h-57v103h547v-200h-105v97h-215v-132h90v58h84v-211h-84v58h-90v-145h219v107h105v-210h-551z" />
    <glyph glyph-name="F" unicode="F" horiz-adv-x="610" 
d="M47 0v102h57v373h-57v103h544v-204h-105v101h-212v-131h88v56h84v-210h-84v58h-88v-146h64v-102h-291z" />
    <glyph glyph-name="G" unicode="G" horiz-adv-x="733" 
d="M367 -10q-98 0 -172.5 37t-116.5 104.5t-42 155.5q0 90 39.5 157.5t109.5 105.5t162 38q97 0 156.5 -41.5t77.5 -106.5l-41 25v113h113v-207h-97q-25 49 -65.5 75t-101.5 26q-54 0 -93.5 -21.5t-61 -62t-21.5 -99.5q0 -57 20 -98t56.5 -63t84.5 -22q32 0 58 8t45 24
t29.5 40t10.5 57l55 -23h-156v103h262v-41q0 -72 -23 -125.5t-65.5 -88.5t-99 -52.5t-123.5 -17.5z" />
    <glyph glyph-name="H" unicode="H" horiz-adv-x="748" 
d="M47 0v102h57v373h-57v103h284v-103h-57v-133h201v133h-58v103h284v-103h-58v-373h58v-102h-284v102h58v144h-201v-144h57v-102h-284z" />
    <glyph glyph-name="I" unicode="I" horiz-adv-x="384" 
d="M50 0v102h57v373h-57v103h284v-103h-58v-373h58v-102h-284z" />
    <glyph glyph-name="J" unicode="J" horiz-adv-x="387" 
d="M15 -145v124h36q43 0 59 23t16 68v413h-64v95h289v-95h-56v-403q0 -78 -21.5 -127.5t-68 -73.5t-120.5 -24h-70z" />
    <glyph glyph-name="K" unicode="K" horiz-adv-x="698" 
d="M47 0v102h57v373h-57v103h285v-103h-58v-167l170 167h-50v103h264v-103h-46l-179 -177l191 -196h46v-102h-278v102h44l-162 172v-172h58v-102h-285z" />
    <glyph glyph-name="L" unicode="L" horiz-adv-x="568" 
d="M47 0v102h57v381h-57v95h284v-95h-57v-381h158v153h113v-255h-498z" />
    <glyph glyph-name="M" unicode="M" horiz-adv-x="903" 
d="M47 0v102h57v373h-57v103h284l128 -312l124 312h273v-103h-57v-373h57v-102h-274v102h56v325l-162 -404h-74l-164 404v-325h56v-102h-247z" />
    <glyph glyph-name="N" unicode="N" horiz-adv-x="750" 
d="M48 0v102h58v373h-58v103h253l243 -366v263h-66v103h235v-103h-57v-475h-169l-272 407v-305h66v-102h-233z" />
    <glyph glyph-name="O" unicode="O" horiz-adv-x="729" 
d="M364 -10q-74 0 -134.5 21t-103.5 61t-66.5 94t-23.5 121q0 66 23.5 121t66.5 95.5t103.5 62.5t134.5 22t135 -22t104 -62.5t66 -95t23 -121.5q0 -66 -23 -120.5t-66 -94.5t-103.5 -61t-135.5 -21zM364 106q35 0 63 13.5t48 38t30.5 58.5t10.5 74q0 42 -10.5 75
t-30.5 57.5t-48 37t-63 12.5t-62.5 -13t-47.5 -37t-30.5 -57.5t-10.5 -74.5t10.5 -74.5t30.5 -58t47.5 -38t62.5 -13.5z" />
    <glyph glyph-name="P" unicode="P" horiz-adv-x="630" 
d="M47 0v102h57v373h-57v103h314q120 0 183.5 -40.5t63.5 -133.5q0 -94 -60 -136.5t-173 -42.5h-63v102h40q39 0 60.5 19t21.5 56q0 36 -20 54.5t-58 18.5h-82v-373h64v-102h-291z" />
    <glyph glyph-name="Q" unicode="Q" horiz-adv-x="728" 
d="M554 -179q-91 0 -158.5 42t-105.5 133q-59 9 -105.5 34t-79.5 63t-51 87t-18 107q0 66 23.5 121t66.5 95.5t103.5 62.5t134.5 22t135 -22t104 -62.5t66 -95t23 -121.5q0 -57 -17.5 -106.5t-51 -87.5t-80 -62.5t-106.5 -34.5q14 -36 48 -52.5t77 -16.5q25 0 47 4t45 12
v-104q-23 -9 -47 -13.5t-53 -4.5zM364 106q35 0 63 13.5t48 38.5t30.5 58.5t10.5 73.5q0 42 -10.5 75t-30.5 57.5t-48 37t-63 12.5t-62.5 -13t-47.5 -37t-30.5 -57.5t-10.5 -74.5q0 -40 10.5 -73.5t30.5 -58.5t47.5 -38.5t62.5 -13.5z" />
    <glyph glyph-name="R" unicode="R" horiz-adv-x="705" 
d="M47 0v102h57v373h-57v103h349q70 0 124 -17.5t85 -54.5t31 -100q0 -39 -14 -69t-40 -50.5t-64 -32.5l95 -151h58v-103h-183l-133 234h-42v103h71q28 0 45 9.5t25.5 26t8.5 38.5q0 19 -8.5 33.5t-25.5 22.5t-41 8h-114v-373h54v-102h-281z" />
    <glyph glyph-name="S" unicode="S" horiz-adv-x="591" 
d="M351 -10q-42 0 -85 13t-76 38t-44 60h22v-101h-112v197h100q14 -33 38 -58t56 -39t71 -14q33 0 52.5 14.5t19.5 43.5q0 21 -9 34.5t-29.5 22t-53.5 15.5l-66 13q-93 20 -138.5 65t-45.5 122q0 51 24 90t67.5 60.5t101.5 21.5q68 0 117 -24t79 -69h-23v83h105v-169h-96
q-10 20 -28.5 39t-45.5 31.5t-65 12.5q-32 0 -50 -13.5t-18 -38.5q0 -28 25 -44t81 -27l35 -7q66 -12 108 -35.5t62.5 -61t20.5 -92.5q0 -57 -25 -97.5t-69.5 -63t-105.5 -22.5z" />
    <glyph glyph-name="T" unicode="T" horiz-adv-x="642" 
d="M172 0v102h65v376h-102v-114h-109v214h590v-214h-109v114h-101v-376h65v-102h-299z" />
    <glyph glyph-name="U" unicode="U" horiz-adv-x="693" 
d="M352 -11q-86 0 -144.5 25.5t-88.5 75t-30 121.5v264h-57v103h288v-103h-62v-265q0 -37 12.5 -63t36.5 -39.5t59 -13.5q36 0 61 13.5t38 39.5t13 63v265h-48v103h233v-103h-57v-263q0 -73 -29 -122.5t-85.5 -75t-139.5 -25.5z" />
    <glyph glyph-name="V" unicode="V" horiz-adv-x="677" 
d="M289 0l-222 475h-52v103h296v-103h-68l115 -291l111 291h-66v103h259v-103h-52l-203 -475h-118z" />
    <glyph glyph-name="W" unicode="W" horiz-adv-x="913" 
d="M232 0l-163 475h-52v103h254v-103h-55l76 -251l120 336h104l117 -336l82 251h-62v103h244v-103h-53l-155 -475h-107l-122 332l-122 -332h-106z" />
    <glyph glyph-name="X" unicode="X" horiz-adv-x="684" 
d="M29 0v102h47l156 188l-148 186h-46v102h274v-102h-44l81 -110l83 110h-45v102h258v-102h-48l-147 -177l158 -197h48v-102h-276v102h45l-90 122l-93 -122h46v-102h-259z" />
    <glyph glyph-name="Y" unicode="Y" horiz-adv-x="673" 
d="M190 0v102h66v114l-188 259h-57v103h304v-103h-62l106 -158l105 158h-63v103h261v-103h-58l-179 -259v-114h66v-102h-301z" />
    <glyph glyph-name="Z" unicode="Z" horiz-adv-x="592" 
d="M40 0v81l278 397h-162v-111h-109v211h499v-80l-280 -399h177v124h112v-223h-515z" />
    <glyph glyph-name="bracketleft" unicode="[" horiz-adv-x="435" 
d="M148 -113v723h207v-73h-84v-574h84v-76h-207z" />
    <glyph glyph-name="backslash" unicode="\" horiz-adv-x="348" 
d="M247 -140l-236 748h122l237 -748h-123z" />
    <glyph glyph-name="bracketright" unicode="]" horiz-adv-x="435" 
d="M79 -113v76h85v574h-85v73h208v-723h-208z" />
    <glyph glyph-name="asciicircum" unicode="^" horiz-adv-x="584" 
d="M41 169l196 400h107l197 -400h-119l-131 295l-130 -295h-120z" />
    <glyph glyph-name="underscore" unicode="_" horiz-adv-x="513" 
d="M6 -104v62h501v-62h-501z" />
    <glyph glyph-name="grave" unicode="`" horiz-adv-x="381" 
d="M196 464l-96 173h138l43 -173h-85z" />
    <glyph glyph-name="a" unicode="a" horiz-adv-x="483" 
d="M164 -10q-61 0 -97 32t-36 85q0 45 22.5 72.5t59 39.5t77.5 12q34 0 63 -6t48 -15l-23 -5v33q0 38 -19.5 56.5t-56.5 18.5q-28 0 -59.5 -8t-72.5 -26l-33 85q50 23 100 34.5t101 11.5q59 0 100.5 -19.5t63 -56t21.5 -87.5v-159h48v-88h-170l-20 62h36q-33 -36 -70 -54
t-83 -18zM215 67q21 0 42 10t40 33l-19 -37v97l19 -21q-14 8 -32.5 13t-40.5 5q-24 0 -42.5 -11.5t-18.5 -39.5q0 -23 13.5 -36t38.5 -13z" />
    <glyph glyph-name="b" unicode="b" horiz-adv-x="534" 
d="M214 588v-254l-25 6q23 31 61 50.5t86 19.5q55 0 95.5 -25.5t62 -71.5t21.5 -108q0 -66 -23.5 -114t-65.5 -74.5t-98 -26.5q-51 0 -90 19.5t-70 52.5l39 -16l-4 -46h-189v88h52v412h-52v88h200zM276 300q-24 0 -46 -12t-39 -36l23 51v-214l-26 52q19 -19 40.5 -30
t47.5 -11q39 0 62.5 27t23.5 73q0 49 -24 74.5t-62 25.5z" />
    <glyph glyph-name="c" unicode="c" 
d="M245 -10q-67 0 -118 27t-79.5 75.5t-28.5 112.5q0 62 26.5 108.5t71 72t100.5 25.5q55 0 88.5 -22.5t48.5 -58.5h-27v71h98v-166h-92q-4 37 -25 58t-61 21q-28 0 -48 -12.5t-31 -35.5t-11 -54q0 -34 14 -59t39 -39t59 -14q38 0 68.5 12.5t54.5 33.5l42 -89
q-35 -30 -81.5 -48.5t-107.5 -18.5z" />
    <glyph glyph-name="d" unicode="d" horiz-adv-x="530" 
d="M205 -10q-55 0 -97 26t-65.5 74t-23.5 112q0 63 23.5 110t65.5 72.5t95 25.5q50 0 85.5 -18.5t57.5 -49.5l-25 -9v167h-63v88h211v-500h49v-88h-186l-4 48l39 13q-32 -33 -71 -52t-91 -19zM259 100q27 0 48 10.5t40 29.5l-26 -50v215l23 -50q-17 22 -38.5 33.5
t-47.5 11.5q-25 0 -44.5 -11.5t-30.5 -34t-11 -56.5q0 -29 11.5 -51t30.5 -34.5t45 -12.5z" />
    <glyph glyph-name="e" unicode="e" 
d="M248 -11q-69 0 -120.5 25t-80.5 72.5t-29 113.5q0 63 28 110t77.5 74t113.5 27q63 0 107.5 -26.5t68 -73t23.5 -107.5v-27h-336l1 63h198q0 24 -7.5 40.5t-22.5 25.5t-37 9q-25 0 -42 -12.5t-25.5 -36t-8.5 -55.5q0 -37 14.5 -61.5t39.5 -37t58 -12.5q36 0 68 12t56 31
l41 -88q-34 -30 -81 -48t-104 -18z" />
    <glyph glyph-name="f" unicode="f" horiz-adv-x="317" 
d="M18 0v88h53v225h-53v87h53v51q0 47 19.5 84t60.5 59t104 22q78 0 118.5 -32.5t47.5 -92.5l-113 -20q-1 27 -10.5 42.5t-32.5 15.5q-22 0 -33.5 -16.5t-11.5 -58.5v-54h97v-87h-97v-225h70v-88h-272z" />
    <glyph glyph-name="g" unicode="g" horiz-adv-x="535" 
d="M253 -195q-48 0 -91.5 9t-87.5 23l24 91q39 -12 69 -17.5t59 -5.5q49 0 74 24.5t25 71.5v45l38 18q-33 -37 -67 -54.5t-84 -17.5q-59 0 -102 25.5t-66 72t-23 110.5t23 111t65.5 73t101.5 26q48 0 84.5 -21t56.5 -49l-20 -8l1 68h189v-87h-49v-292q0 -72 -27 -120
t-76 -72t-117 -24zM257 304q-24 -1 -43 -13t-29.5 -35t-10.5 -57q0 -31 11.5 -53.5t30.5 -35t45 -12.5t49.5 10.5t43.5 30.5l-29 -61l-1 238l25 -58q-20 23 -43.5 34.5t-48.5 11.5z" />
    <glyph glyph-name="h" unicode="h" horiz-adv-x="540" 
d="M11 0v88h51v412h-50v88h199v-238l-45 -14q41 34 84 54t92 20q65 0 100.5 -39.5t35.5 -99.5v-183h52v-88h-242v88h42v159q0 30 -14 46.5t-40 16.5q-24 0 -49 -11t-47 -29l31 62v-244h42v-88h-242z" />
    <glyph glyph-name="i" unicode="i" horiz-adv-x="280" 
d="M16 0v88h52v225h-52v87h201v-312h51v-88h-252zM131 474q-39 0 -63 23t-24 60q0 38 24 60.5t63 22.5t62.5 -22.5t23.5 -60.5q1 -37 -23 -60t-63 -23z" />
    <glyph glyph-name="j" unicode="j" horiz-adv-x="298" 
d="M-6 -165v110h38q42 0 59 18.5t17 61.5v280h-74v95h223v-356q0 -73 -23 -119t-70 -68t-118 -22h-52zM167 475q-39 0 -62.5 23t-23.5 60q0 38 23.5 60.5t62.5 22.5t63 -22.5t24 -60.5q0 -37 -24 -60t-63 -23z" />
    <glyph glyph-name="k" unicode="k" horiz-adv-x="535" 
d="M16 0v88h52v412h-52v88h197v-375l130 100h-51v87h227v-87h-41l-120 -94l122 -131h43v-88h-140l-170 196v-108h49v-88h-246z" />
    <glyph glyph-name="l" unicode="l" horiz-adv-x="276" 
d="M16 0v88h52v412h-52v88h198v-500h49v-88h-247z" />
    <glyph glyph-name="m" unicode="m" horiz-adv-x="815" 
d="M16 0v88h52v225h-51v87h189l3 -48l-37 -15q41 34 84 53.5t90 19.5q67 0 101.5 -40.5t34.5 -99.5v-182h51v-88h-242v88h43v159q0 30 -14 46.5t-40 16.5q-22 0 -47 -10.5t-47 -27.5l31 60v-244h43v-88h-244zM565 0v88h43v159q0 30 -14.5 46.5t-39.5 16.5q-23 0 -46.5 -10
t-44.5 -27l-18 64q41 34 83.5 53.5t90.5 19.5q65 0 101 -39.5t36 -99.5v-183h51v-88h-242z" />
    <glyph glyph-name="n" unicode="n" horiz-adv-x="542" 
d="M16 0v88h52v225h-52v87h190l3 -49l-37 -14q41 34 84 53.5t90 19.5q65 0 101 -39.5t36 -99.5v-183h51v-88h-242v88h42v159q0 30 -14 46.5t-39 16.5q-24 0 -48 -10.5t-47 -28.5l31 61v-244h43v-88h-244z" />
    <glyph glyph-name="o" unicode="o" horiz-adv-x="482" 
d="M241 -11q-67 0 -117 26.5t-78 74.5t-28 111t28 110t78 73.5t117 26.5t117 -26.5t78 -73.5t28 -110t-28 -111t-78 -74.5t-117 -26.5zM241 101q26 0 45.5 12t29.5 34.5t10 53.5t-10 53t-29.5 34t-45.5 12q-27 0 -45.5 -12t-29 -34t-10.5 -53t10.5 -53.5t29 -34.5t45.5 -12z
" />
    <glyph glyph-name="p" unicode="p" horiz-adv-x="531" 
d="M12 -167v88h51v392h-50v87h187l4 -45l-39 -21q32 35 72.5 55.5t92.5 20.5q58 0 98.5 -26t62 -72t21.5 -109q0 -65 -24 -113t-66 -74t-96 -26q-32 0 -58.5 7.5t-46.5 20t-31 28.5l22 19v-144h64v-88h-264zM271 100q39 0 63.5 26t24.5 74q0 45 -23 72.5t-62 27.5
q-16 0 -31.5 -5.5t-30 -15t-27.5 -25.5l27 56v-213l-22 37q15 -17 36.5 -25.5t44.5 -8.5z" />
    <glyph glyph-name="q" unicode="q" horiz-adv-x="536" 
d="M259 -168v88h65v134l24 -6q-21 -26 -56 -42t-82 -16q-55 0 -98 26t-68 73t-25 109q0 66 24.5 113.5t69 73t102.5 25.5q49 0 87 -19.5t68 -53.5l-39 16l4 47h188v-87h-51v-393h51v-88h-264zM260 100q25 0 47 9t39 26l-22 -51v225l26 -51q-21 20 -44 31t-50 11
q-25 0 -44 -12.5t-29.5 -35t-10.5 -53.5q0 -32 11 -54t31.5 -33.5t45.5 -11.5z" />
    <glyph glyph-name="r" unicode="r" horiz-adv-x="410" 
d="M20 0v88h52v225h-52v87h200v-123l-17 -1q16 53 36.5 81.5t44 40t46.5 11.5q21 0 40 -4.5t36 -13.5l-31 -120q-15 9 -36.5 15t-45.5 6q-25 0 -49 -15t-24 -51v-138h57v-88h-257z" />
    <glyph glyph-name="s" unicode="s" 
d="M267 -10q-36 0 -68 8.5t-55 25t-34 37.5l28 2v-63h-93v132h87l5 -54l-26 37q22 -21 52 -34t63 -13q25 0 39 9t14 25q0 20 -16 29.5t-52 17.5l-36 7q-70 16 -100.5 45.5t-30.5 82.5q0 59 41.5 92.5t108.5 33.5q35 0 64.5 -9t49 -23.5t25.5 -30.5l-31 -2v56h93v-126h-87
l-7 63l23 -39q-8 11 -23.5 19t-34.5 12.5t-37 4.5q-21 0 -35 -8.5t-14 -25.5q0 -16 13 -24t36 -14l42 -8q47 -10 78.5 -26.5t48 -43t16.5 -68.5t-19.5 -70t-53 -42.5t-74.5 -14.5z" />
    <glyph glyph-name="t" unicode="t" horiz-adv-x="328" 
d="M195 0q-62 0 -95.5 28.5t-33.5 90.5v194h-50v87h49v130l149 25v-155h90v-87h-90v-169q0 -29 10.5 -41t36.5 -12h46v-91h-112z" />
    <glyph glyph-name="u" unicode="u" horiz-adv-x="540" 
d="M197 -10q-46 0 -76.5 19t-45.5 51t-15 70v183h-50v87h199v-248q0 -29 13.5 -45.5t39.5 -16.5q25 0 49.5 12t45.5 33l-30 -64v242h-44v87h192v-312h52v-88h-188l-5 52l37 14q-39 -35 -82 -55.5t-92 -20.5z" />
    <glyph glyph-name="v" unicode="v" horiz-adv-x="511" 
d="M193 0l-151 313h-40v87h242v-87h-42l77 -177l76 177h-42v87h196v-87h-38l-150 -313h-128z" />
    <glyph glyph-name="w" unicode="w" horiz-adv-x="711" 
d="M149 0l-111 313h-36v87h205v-87h-36l62 -192l63 192h-37v87h195v-87h-37l64 -192l59 192h-37v87h205v-87h-37l-115 -313h-131l-71 202l-72 -202h-133z" />
    <glyph glyph-name="x" unicode="x" horiz-adv-x="514" 
d="M13 0v88h38l110 115l-102 110h-39v87h214v-87h-30l54 -61l54 61h-30v87h214v-87h-41l-101 -109l111 -116h38v-88h-219v88h35l-62 66l-62 -66h34v-88h-216z" />
    <glyph glyph-name="y" unicode="y" horiz-adv-x="523" 
d="M89 -169v108h36q24 0 40 4.5t28 15.5t22 32l17 35h-40l-149 287h-41v87h241v-87h-48l83 -178l78 178h-50v87h217v-87h-39l-167 -340q-25 -49 -45.5 -80.5t-51 -46.5t-85.5 -15h-46z" />
    <glyph glyph-name="z" unicode="z" horiz-adv-x="455" 
d="M31 0v73l215 244h-125v-74h-89v157h386v-73l-218 -245h137v85h89v-167h-395z" />
    <glyph glyph-name="braceleft" unicode="{" horiz-adv-x="470" 
d="M353 -105q-72 0 -111 13t-55.5 36.5t-19.5 56.5t-3 73q0 46 -9 74.5t-30.5 42.5t-58.5 14v75q37 0 58.5 14.5t30.5 44t9 74.5q0 40 3 72.5t19.5 56t55.5 36.5t110 13h53v-80q-43 0 -64 -7t-28 -20.5t-7 -34.5q0 -59 -3 -97.5t-15 -61t-38.5 -33.5t-71.5 -14
q45 -6 71 -16.5t38 -32.5t15.5 -59.5t3.5 -95.5q0 -22 6.5 -36t28 -21t64.5 -7v-80h-52z" />
    <glyph glyph-name="bar" unicode="|" horiz-adv-x="230" 
d="M55 -140v748h120v-748h-120z" />
    <glyph glyph-name="braceright" unicode="}" horiz-adv-x="470" 
d="M81 -105v80q43 0 64 7t27.5 21t6.5 36q0 58 3.5 95.5t15.5 59.5t38.5 32.5t71.5 16.5q-46 3 -72 14t-38 33.5t-15.5 61t-3.5 97.5q0 21 -6.5 34.5t-27.5 20.5t-64 7v80h51q73 0 112 -13t55 -36.5t19.5 -56.5t3.5 -73q0 -44 9 -73.5t30.5 -44t58.5 -14.5v-75
q-37 0 -58.5 -14t-30.5 -42.5t-9 -74.5q0 -40 -3.5 -73t-19.5 -56.5t-55 -36.5t-112 -13h-51z" />
    <glyph glyph-name="asciitilde" unicode="~" horiz-adv-x="572" 
d="M380 208q-35 0 -66 13t-58.5 25.5t-54.5 12.5q-19 0 -31 -10.5t-14 -32.5h-79q3 47 19 75t41 41t54 13q35 0 64 -12.5t57 -25.5t58 -13q20 0 32 10.5t14 32.5h79q-2 -46 -19 -74.5t-41.5 -41.5t-54.5 -13z" />
    <glyph glyph-name="DEL" horiz-adv-x="520" 
 />
    <glyph glyph-name="uni00A0" unicode="&#xa0;" horiz-adv-x="316" 
 />
    <glyph glyph-name="exclamdown" unicode="&#xa1;" horiz-adv-x="206" 
d="M69 271l-26 -246v-181h131v181l-26 246h-79zM112 452q-33 0 -53.5 -19.5t-20.5 -48.5t20.5 -48t53.5 -19t53.5 19t20.5 48t-20.5 48.5t-53.5 19.5z" />
    <glyph glyph-name="cent" unicode="&#xa2;" 
d="M220 -85v569h52v-569h-52zM245 -10q-67 0 -118 27t-79.5 75.5t-28.5 112.5q0 62 26.5 108.5t71 72t100.5 25.5q55 0 88.5 -22.5t48.5 -58.5h-27v71h98v-166h-92q-4 37 -25 58t-61 21q-28 0 -48 -12.5t-31 -35.5t-11 -54q0 -34 14 -59t39 -39t59 -14q38 0 68.5 12.5
t54.5 33.5l42 -89q-35 -30 -81.5 -48.5t-107.5 -18.5z" />
    <glyph glyph-name="sterling" unicode="&#xa3;" horiz-adv-x="570" 
d="M149 -11q-57 0 -90 27.5t-33 75.5q0 43 29.5 73t81.5 30q31 0 56.5 -10t48.5 -24.5t44.5 -29.5t45.5 -25t51 -10q32 0 48 17.5t16 53.5h91v-11q0 -74 -34.5 -120t-106.5 -46q-39 0 -69.5 14t-55 34.5t-45 41.5t-41 35t-42.5 14q-20 0 -32.5 -10.5t-12.5 -29.5t13 -30
t35 -11q24 0 43 11.5t29.5 31.5t10.5 47q0 34 -11.5 63t-29 55l-35 52t-29 55.5t-11.5 64.5q0 51 23 86.5t67 54.5t107 19q108 0 155.5 -44.5t47.5 -121.5h-120q0 35 -14.5 56.5t-47.5 21.5q-31 0 -46.5 -19.5t-15.5 -51.5q0 -28 8 -52.5t20 -48t24 -47.5t20.5 -51.5
t8.5 -59.5q0 -52 -27.5 -93t-73 -64.5t-101.5 -23.5zM63 268v64h406v-64h-406z" />
    <glyph glyph-name="currency" unicode="&#xa4;" horiz-adv-x="639" 
d="M320 46q-72 0 -128.5 32.5t-89 88.5t-32.5 127t32.5 126.5t89 88t128.5 32.5q71 0 127.5 -32.5t89 -88t32.5 -126.5t-32.5 -127t-89 -88.5t-127.5 -32.5zM100 22l-53 52l93 84l45 -43zM539 22l-85 93l45 43l92 -84zM320 154q39 0 70 18.5t48.5 50t17.5 71.5t-17.5 71
t-48.5 49.5t-70 18.5t-70.5 -18.5t-49.5 -49.5t-18 -71t18 -71.5t49.5 -50t70.5 -18.5zM138 431l-91 82l53 52l83 -91zM502 432l-46 42l83 91l52 -52z" />
    <glyph glyph-name="yen" unicode="&#xa5;" horiz-adv-x="674" 
d="M105 233v55h461v-55h-461zM105 141v54h461v-54h-461zM189 0v102h66v114l-188 259h-56v103h304v-103h-63l106 -158l105 158h-62v103h260v-103h-57l-179 -259v-114h66v-102h-302z" />
    <glyph glyph-name="brokenbar" unicode="&#xa6;" horiz-adv-x="230" 
d="M55 308v300h120v-300h-120zM55 -140v300h120v-300h-120z" />
    <glyph glyph-name="section" unicode="&#xa7;" horiz-adv-x="457" 
d="M223 -88q-59 0 -92.5 15t-47.5 38t-14 47q0 30 19 45t48 15q0 -52 25 -85.5t71 -33.5q41 0 63 21.5t22 57.5q0 22 -9.5 38.5t-39 35t-89.5 47.5q-44 23 -71.5 45.5t-39.5 48t-12 55.5q0 27 15 49.5t39 33.5q-15 15 -26 39t-11 57q0 60 44 93.5t112 33.5q47 0 78.5 -12.5
t47 -33t15.5 -45.5q0 -24 -18 -39.5t-53 -15.5q0 24 -6.5 48t-22 40t-44.5 16q-36 0 -57 -20t-21 -56q0 -26 11.5 -42t33.5 -28t53 -27q56 -27 91 -51t51.5 -49.5t16.5 -59.5q0 -29 -15 -55t-36 -40q13 -16 20.5 -38.5t7.5 -46.5q0 -62 -40 -101.5t-119 -39.5zM318 168
q7 7 10 17t3 23q0 18 -8 34t-30 33t-62 37q-12 5 -25 11t-24.5 12t-22 12t-19.5 13q-8 -7 -12.5 -17t-4.5 -22q0 -23 10.5 -39t35 -31.5t67.5 -36.5q27 -13 46.5 -24t35.5 -22z" />
    <glyph glyph-name="dieresis" unicode="&#xa8;" horiz-adv-x="605" 
d="M179 478q-32 0 -55.5 19t-23.5 56t23.5 56.5t55.5 19.5t55.5 -19.5t23.5 -56.5t-23.5 -56t-55.5 -19zM425 478q-32 0 -55 19t-23 56t23 56.5t55 19.5t55.5 -19.5t23.5 -56.5t-23.5 -56t-55.5 -19z" />
    <glyph glyph-name="copyright" unicode="&#xa9;" horiz-adv-x="750" 
d="M374 -12q-68 0 -126 22.5t-100 63.5t-65 96.5t-23 122.5q0 68 23 124t65 97t100 63.5t126 22.5q69 0 127 -22.5t100.5 -63.5t65.5 -97t23 -124q0 -67 -23 -122.5t-65.5 -96.5t-100.5 -63.5t-127 -22.5zM374 46q72 0 126 31.5t85.5 87t31.5 127.5q0 74 -31.5 130t-85.5 88
t-126 32q-70 0 -124 -32t-85.5 -88t-31.5 -130q0 -72 31.5 -127.5t85.5 -87t124 -31.5zM381 130q-48 0 -85.5 21t-58.5 57.5t-21 83.5q0 37 12 67t33.5 51.5t50.5 33t63 11.5q28 0 52 -10t36 -27v31h56v-113h-54q-7 30 -29.5 48t-53.5 18q-27 0 -48.5 -13.5t-34.5 -37.5
t-13 -57q0 -32 12.5 -57t34 -39.5t49.5 -14.5q29 0 56.5 14t41.5 37l45 -30q-20 -33 -60 -53.5t-84 -20.5z" />
    <glyph glyph-name="ordfeminine" unicode="&#xaa;" horiz-adv-x="421" 
d="M136 248q-48 0 -81 25t-33 70q0 36 19 59.5t50 34.5t68 11q18 0 36 -2t31 -5v13q0 52 -62 52q-23 0 -49.5 -6.5t-59.5 -23.5l-30 72q38 20 78.5 30t82.5 10q45 0 82 -14t58.5 -42.5t21.5 -70.5v-125h46v-80h-141l-10 23q-23 -15 -49 -23t-58 -8zM175 312q12 0 25.5 4
t25.5 14v57q-8 3 -18.5 4.5t-22.5 1.5q-21 0 -36.5 -9t-15.5 -33q0 -18 11.5 -28.5t30.5 -10.5z" />
    <glyph glyph-name="guillemotleft" unicode="&#xab;" horiz-adv-x="618" 
d="M444 58l-143 218l143 223h112l-114 -222l114 -219h-112zM214 58l-143 218l143 223h113l-115 -222l115 -219h-113z" />
    <glyph glyph-name="logicalnot" unicode="&#xac;" horiz-adv-x="564" 
d="M407 120v122h-330v82h410v-204h-80z" />
    <glyph glyph-name="uni00AD" unicode="&#xad;" horiz-adv-x="383" 
d="M51 191v91h281v-91h-281z" />
    <glyph glyph-name="registered" unicode="&#xae;" horiz-adv-x="750" 
d="M373 -11q-69 0 -127 23t-99.5 64t-64 96t-22.5 121q0 67 22.5 122.5t64 96.5t99.5 64t127 23q70 0 128 -23t99.5 -64t64.5 -97t23 -122t-23 -121t-64.5 -96t-99.5 -64t-128 -23zM373 47q54 0 98 18t76 51.5t49.5 78t17.5 97.5t-17.5 99t-49.5 79.5t-76 52t-98 18.5
q-53 0 -97 -18.5t-76 -52t-49 -79.5t-17 -99t17 -98t49 -78t76 -51t97 -18zM236 147v34h44v242h-44v35h154q47 0 76.5 -22.5t29.5 -59.5q0 -29 -19.5 -51.5t-51.5 -29.5l63 -114h44v-34h-80l-76 142h-44v-108h41v-34h-137zM332 326h55q26 0 41.5 13.5t15.5 35.5t-15 35
t-39 13h-58v-97z" />
    <glyph glyph-name="macron" unicode="&#xaf;" horiz-adv-x="462" 
d="M100 469v79h262v-79h-262z" />
    <glyph glyph-name="degree" unicode="&#xb0;" horiz-adv-x="248" 
d="M124 381q-55 0 -88 36t-33 84q0 47 33 82t88 35t87.5 -35t32.5 -82q0 -48 -32.5 -84t-87.5 -36zM125 425q33 0 52.5 23t19.5 53q0 29 -19 51.5t-54 22.5q-34 0 -53.5 -22t-19.5 -52t19.5 -53t54.5 -23z" />
    <glyph glyph-name="plusminus" unicode="&#xb1;" horiz-adv-x="592" 
d="M253 165v158h-176v80h176v155h87v-155h174v-80h-174v-158h-87zM77 42v80h437v-80h-437z" />
    <glyph glyph-name="uni00B2" unicode="&#xb2;" horiz-adv-x="350" 
d="M28 298v61l101 85q39 33 60 58t21 55q-1 19 -11 31t-33 12q-25 0 -38 -18.5t-13 -45.5q0 -9 1.5 -18t3.5 -20h-89q-3 11 -5 23.5t-2 24.5q0 36 17 66t51.5 47.5t84.5 17.5q65 0 101 -31t36 -81q0 -48 -31.5 -83t-89.5 -81l-84 -67l-4 38h148v43h68v-117h-293z" />
    <glyph glyph-name="uni00B3" unicode="&#xb3;" horiz-adv-x="364" 
d="M187 286q-68 0 -111 27t-56 82l86 36q9 -34 30.5 -49.5t48.5 -15.5q21 0 34.5 10t13.5 32q0 24 -17.5 35t-52.5 11v60q33 0 48.5 11t15.5 33q0 19 -12.5 30.5t-34.5 11.5q-26 0 -42 -16t-22 -44l-90 31q12 54 55.5 80t102.5 26q73 0 111 -30.5t38 -77.5q0 -37 -26 -60.5
t-70 -29.5v16q49 -5 78 -29.5t29 -69.5q0 -55 -43.5 -82.5t-113.5 -27.5z" />
    <glyph glyph-name="acute" unicode="&#xb4;" horiz-adv-x="381" 
d="M100 464l43 173h138l-97 -173h-84z" />
    <glyph glyph-name="uni00B5" unicode="&#xb5;" horiz-adv-x="541" 
d="M64 -134v447h-50v87h198v-248q0 -29 14 -45.5t41 -16.5q17 0 33 6t31 17v200h-44v87h192v-312h52v-88h-188l-2 27q-20 -18 -41 -27.5t-44 -9.5q-15 0 -25 3.5t-19 8.5v-136h-148z" />
    <glyph glyph-name="paragraph" unicode="&#xb6;" horiz-adv-x="587" 
d="M212 -1v95h128v128h-123q-58 0 -98.5 20.5t-61.5 58.5t-21 90q0 53 24.5 91.5t73 59.5t118.5 21h312v-95h-86v-374h85v-95h-351zM243 309l97 2v157h-97v-159z" />
    <glyph glyph-name="periodcentered" unicode="&#xb7;" horiz-adv-x="255" 
d="M127 206q-29 0 -48 19t-19 45q0 27 19.5 45t47.5 18q29 0 48.5 -18t19.5 -45q0 -26 -19.5 -45t-48.5 -19z" />
    <glyph glyph-name="cedilla" unicode="&#xb8;" horiz-adv-x="381" 
d="M189 -203q-49 0 -89 25v39q14 -5 29 -9t28 -4q15 0 25 7t10 24q0 16 -13.5 24t-44.5 9l35 88h53l-15 -57q38 -6 56 -26.5t18 -46.5q0 -38 -28 -55.5t-64 -17.5z" />
    <glyph glyph-name="uni00B9" unicode="&#xb9;" horiz-adv-x="269" 
d="M20 298v68h56v227l-53 -9l-3 62l172 21v-301h57v-68h-229z" />
    <glyph glyph-name="ordmasculine" unicode="&#xba;" horiz-adv-x="444" 
d="M222 248q-57 0 -100.5 21t-67.5 59.5t-24 89.5q0 52 24 90t67.5 59t101.5 21q57 0 100.5 -21t67 -59t23.5 -90q0 -51 -23.5 -89.5t-67 -59.5t-101.5 -21zM223 327q20 0 35.5 11t24 31.5t8.5 48.5t-8.5 48t-24 31t-36.5 11q-20 0 -35.5 -11t-24 -31t-8.5 -48t8.5 -48
t24 -31t36.5 -12z" />
    <glyph glyph-name="guillemotright" unicode="&#xbb;" horiz-adv-x="590" 
d="M304 58l116 222l-116 219h113l143 -217l-143 -224h-113zM75 58l115 222l-115 219h113l143 -217l-143 -224h-113z" />
    <glyph glyph-name="onequarter" unicode="&#xbc;" horiz-adv-x="833" 
d="M55 220v68h56v227l-53 -9l-3 62l172 21v-301h57v-68h-229zM191 0l378 579h71l-376 -579h-73zM560 0v67h54v39h-171l-9 47l184 216h102v-206h59v-57h-59v-39h51v-67h-211zM520 163h94v111z" />
    <glyph glyph-name="onehalf" unicode="&#xbd;" horiz-adv-x="854" 
d="M55 219v68h56v227l-53 -9l-3 62l172 21v-301h57v-68h-229zM186 0l378 579h71l-376 -579h-73zM507 0v61l101 85q39 33 60 58t21 55q-1 19 -11 31t-33 12q-25 0 -38 -18.5t-13 -45.5q0 -9 1.5 -18t3.5 -20h-89q-3 11 -5 23.5t-2 24.5q0 36 17 66t51.5 47.5t84.5 17.5
q65 0 101 -31t36 -81q0 -48 -31.5 -83t-89.5 -81l-84 -67l-4 38h148v43h68v-117h-293z" />
    <glyph glyph-name="threequarters" unicode="&#xbe;" horiz-adv-x="889" 
d="M222 206q-68 0 -111 27t-56 82l86 36q9 -34 30.5 -49.5t48.5 -15.5q21 0 34.5 10t13.5 32q0 24 -17.5 35t-52.5 11v60q33 0 48.5 11t15.5 33q0 19 -12.5 30.5t-34.5 11.5q-26 0 -42 -16t-22 -44l-90 31q12 54 55.5 80t102.5 26q73 0 111 -30.5t38 -77.5q0 -37 -26 -60.5
t-70 -29.5v16q49 -5 78 -29.5t29 -69.5q0 -55 -43.5 -82.5t-113.5 -27.5zM254 0l378 579h71l-376 -579h-73zM616 0v67h54v39h-171l-9 47l184 216h102v-206h59v-57h-59v-39h51v-67h-211zM576 163h94v111z" />
    <glyph glyph-name="questiondown" unicode="&#xbf;" horiz-adv-x="500" 
d="M351 270v-16q0 -34 -9 -58t-27 -43.5t-45 -40.5q-32 -25 -47.5 -44t-15.5 -50q0 -34 20 -52.5t57 -18.5q43 0 65.5 22t22.5 65h130q-1 -71 -32 -114.5t-83 -64.5t-117 -21q-100 0 -155 43.5t-55 116.5q0 48 23.5 80t64.5 64q29 23 46.5 39t25 33.5t7.5 43.5v16h124z
M289 451q33 0 53.5 -19.5t20.5 -48.5t-20.5 -48t-53.5 -19t-53.5 19t-20.5 48t20.5 48.5t53.5 19.5z" />
    <glyph glyph-name="Agrave" unicode="&#xc0;" horiz-adv-x="730" 
d="M22 0v102h59l141 373h-56v103h398v-103h-57l143 -373h58v-102h-294v102h64l-33 102h-179l-33 -102h56v-102h-267zM296 300h120l-55 175h-6zM320 641l-96 173h138l43 -173h-85z" />
    <glyph glyph-name="Aacute" unicode="&#xc1;" horiz-adv-x="730" 
d="M22 0v102h59l141 373h-56v103h398v-103h-57l143 -373h58v-102h-294v102h64l-33 102h-179l-33 -102h56v-102h-267zM296 300h120l-55 175h-6zM323 641l43 173h138l-97 -173h-84z" />
    <glyph glyph-name="Acircumflex" unicode="&#xc2;" horiz-adv-x="730" 
d="M22 0v102h59l141 373h-56v103h398v-103h-57l143 -373h58v-102h-294v102h64l-33 102h-179l-33 -102h56v-102h-267zM296 300h120l-55 175h-6zM204 638l86 175h152l84 -175h-93l-68 114l-68 -114h-93z" />
    <glyph glyph-name="Atilde" unicode="&#xc3;" horiz-adv-x="730" 
d="M22 0v102h59l141 373h-56v103h398v-103h-57l143 -373h58v-102h-294v102h64l-33 102h-179l-33 -102h56v-102h-267zM296 300h120l-55 175h-6zM437 648q-28 0 -55.5 11.5t-51.5 23t-42 11.5q-36 0 -40 -41h-70q7 79 39.5 111.5t76.5 32.5q27 0 54.5 -11t51.5 -23t41 -12
q18 0 28.5 10t13.5 31h69q-6 -77 -38 -110.5t-77 -33.5z" />
    <glyph glyph-name="Adieresis" unicode="&#xc4;" horiz-adv-x="730" 
d="M22 0v102h59l141 373h-56v103h398v-103h-57l143 -373h58v-102h-294v102h64l-33 102h-179l-33 -102h56v-102h-267zM296 300h120l-55 175h-6zM242 655q-32 0 -55.5 19t-23.5 56t23.5 56.5t55.5 19.5t55.5 -19.5t23.5 -56.5t-23.5 -56t-55.5 -19zM488 655q-32 0 -55 19
t-23 56t23 56.5t55 19.5t55.5 -19.5t23.5 -56.5t-23.5 -56t-55.5 -19z" />
    <glyph glyph-name="Aring" unicode="&#xc5;" horiz-adv-x="730" 
d="M22 0v102h59l141 373h-56v103h398v-103h-57l143 -373h58v-102h-294v102h64l-33 102h-179l-33 -102h56v-102h-267zM296 300h120l-55 175h-6zM365 632q-44 0 -69 24t-25 65q0 42 25 66t69 24t69 -24t25 -66q0 -41 -25 -65.5t-69 -23.5zM365 677q21 0 32.5 11.5t11.5 32.5
q0 22 -11.5 34t-32.5 12t-32.5 -12t-11.5 -34q0 -21 11.5 -32.5t32.5 -11.5z" />
    <glyph glyph-name="AE" unicode="&#xc6;" horiz-adv-x="986" 
d="M13 0v102h60l208 373h-56v103h681l14 -203h-105l-9 100h-216l8 -133h94l-5 58h84l17 -212h-84l-5 58h-96l9 -143h223l-8 109h105l14 -212h-560v102h57l-6 99h-159l-50 -99h54v-102h-269zM323 296h109l-10 179h-6z" />
    <glyph glyph-name="Ccedilla" unicode="&#xc7;" horiz-adv-x="715" 
d="M365 -10q-71 0 -131 20.5t-104.5 59t-69 93.5t-24.5 125q0 92 40.5 159.5t110 104t159.5 36.5q63 0 110.5 -19t78 -52t41.5 -78l-40 29v110h112v-206h-96q-26 49 -65.5 74.5t-98.5 25.5q-55 0 -94.5 -23t-61 -63.5t-21.5 -95.5q0 -42 12 -75.5t33.5 -58t51.5 -37.5
t67 -13q41 0 72 15t52 44.5t31 72.5l133 -46q-14 -61 -53.5 -106.5t-101 -70.5t-143.5 -25zM355 -203q-49 0 -89 25v39q14 -5 29 -9t28 -4q15 0 25 7t10 24q0 16 -13.5 24t-44.5 9l35 88h53l-15 -57q38 -6 56 -26.5t18 -46.5q0 -38 -28 -55.5t-64 -17.5z" />
    <glyph glyph-name="Egrave" unicode="&#xc8;" horiz-adv-x="651" 
d="M47 0v102h57v373h-57v103h547v-200h-105v97h-215v-132h90v58h84v-211h-84v58h-90v-145h219v107h105v-210h-551zM299 641l-96 173h138l43 -173h-85z" />
    <glyph glyph-name="Eacute" unicode="&#xc9;" horiz-adv-x="651" 
d="M47 0v102h57v373h-57v103h547v-200h-105v97h-215v-132h90v58h84v-211h-84v58h-90v-145h219v107h105v-210h-551zM302 641l43 173h138l-97 -173h-84z" />
    <glyph glyph-name="Ecircumflex" unicode="&#xca;" horiz-adv-x="651" 
d="M47 0v102h57v373h-57v103h547v-200h-105v97h-215v-132h90v58h84v-211h-84v58h-90v-145h219v107h105v-210h-551zM183 638l86 175h152l84 -175h-93l-68 114l-68 -114h-93z" />
    <glyph glyph-name="Edieresis" unicode="&#xcb;" horiz-adv-x="651" 
d="M47 0v102h57v373h-57v103h547v-200h-105v97h-215v-132h90v58h84v-211h-84v58h-90v-145h219v107h105v-210h-551zM221 655q-32 0 -55.5 19t-23.5 56t23.5 56.5t55.5 19.5t55.5 -19.5t23.5 -56.5t-23.5 -56t-55.5 -19zM467 655q-32 0 -55 19t-23 56t23 56.5t55 19.5
t55.5 -19.5t23.5 -56.5t-23.5 -56t-55.5 -19z" />
    <glyph glyph-name="Igrave" unicode="&#xcc;" horiz-adv-x="384" 
d="M50 0v102h57v373h-57v103h284v-103h-58v-373h58v-102h-284zM147 641l-96 173h138l43 -173h-85z" />
    <glyph glyph-name="Iacute" unicode="&#xcd;" horiz-adv-x="384" 
d="M50 0v102h57v373h-57v103h284v-103h-58v-373h58v-102h-284zM150 641l43 173h138l-97 -173h-84z" />
    <glyph glyph-name="Icircumflex" unicode="&#xce;" horiz-adv-x="384" 
d="M50 0v102h57v373h-57v103h284v-103h-58v-373h58v-102h-284zM31 638l86 175h152l84 -175h-93l-68 114l-68 -114h-93z" />
    <glyph glyph-name="Idieresis" unicode="&#xcf;" horiz-adv-x="384" 
d="M50 0v102h57v373h-57v103h284v-103h-58v-373h58v-102h-284zM69 655q-32 0 -55.5 19t-23.5 56t23.5 56.5t55.5 19.5t55.5 -19.5t23.5 -56.5t-23.5 -56t-55.5 -19zM315 655q-32 0 -55 19t-23 56t23 56.5t55 19.5t55.5 -19.5t23.5 -56.5t-23.5 -56t-55.5 -19z" />
    <glyph glyph-name="Eth" unicode="&#xd0;" horiz-adv-x="749" 
d="M47 0v102h58v373h-58v103h343q77 0 134 -22.5t95.5 -61.5t57.5 -91t19 -112q0 -65 -19.5 -118.5t-57 -92t-95 -59.5t-133.5 -21h-344zM274 102h86q43 0 73 13t49.5 37.5t28.5 59.5t9 79q0 42 -9 76t-28 58t-49.5 37t-72.5 13h-87v-373zM47 247v91h281v-91h-281z" />
    <glyph glyph-name="Ntilde" unicode="&#xd1;" horiz-adv-x="750" 
d="M48 0v102h58v373h-58v103h253l243 -366v263h-66v103h235v-103h-57v-475h-169l-272 407v-305h66v-102h-233zM462 648q-28 0 -55.5 11.5t-51.5 23t-42 11.5q-36 0 -40 -41h-70q7 79 39.5 111.5t76.5 32.5q27 0 54.5 -11t51.5 -23t41 -12q18 0 28.5 10t13.5 31h69
q-6 -77 -38 -110.5t-77 -33.5z" />
    <glyph glyph-name="Ograve" unicode="&#xd2;" horiz-adv-x="729" 
d="M364 -10q-74 0 -134.5 21t-103.5 61t-66.5 94t-23.5 121q0 66 23.5 121t66.5 95.5t103.5 62.5t134.5 22t135 -22t104 -62.5t66 -95t23 -121.5q0 -66 -23 -120.5t-66 -94.5t-103.5 -61t-135.5 -21zM364 106q35 0 63 13.5t48 38t30.5 58.5t10.5 74q0 42 -10.5 75
t-30.5 57.5t-48 37t-63 12.5t-62.5 -13t-47.5 -37t-30.5 -57.5t-10.5 -74.5t10.5 -74.5t30.5 -58t47.5 -38t62.5 -13.5zM319 641l-96 173h138l43 -173h-85z" />
    <glyph glyph-name="Oacute" unicode="&#xd3;" horiz-adv-x="729" 
d="M364 -10q-74 0 -134.5 21t-103.5 61t-66.5 94t-23.5 121q0 66 23.5 121t66.5 95.5t103.5 62.5t134.5 22t135 -22t104 -62.5t66 -95t23 -121.5q0 -66 -23 -120.5t-66 -94.5t-103.5 -61t-135.5 -21zM364 106q35 0 63 13.5t48 38t30.5 58.5t10.5 74q0 42 -10.5 75
t-30.5 57.5t-48 37t-63 12.5t-62.5 -13t-47.5 -37t-30.5 -57.5t-10.5 -74.5t10.5 -74.5t30.5 -58t47.5 -38t62.5 -13.5zM322 641l43 173h138l-97 -173h-84z" />
    <glyph glyph-name="Ocircumflex" unicode="&#xd4;" horiz-adv-x="729" 
d="M364 -10q-74 0 -134.5 21t-103.5 61t-66.5 94t-23.5 121q0 66 23.5 121t66.5 95.5t103.5 62.5t134.5 22t135 -22t104 -62.5t66 -95t23 -121.5q0 -66 -23 -120.5t-66 -94.5t-103.5 -61t-135.5 -21zM364 106q35 0 63 13.5t48 38t30.5 58.5t10.5 74q0 42 -10.5 75
t-30.5 57.5t-48 37t-63 12.5t-62.5 -13t-47.5 -37t-30.5 -57.5t-10.5 -74.5t10.5 -74.5t30.5 -58t47.5 -38t62.5 -13.5zM203 638l86 175h152l84 -175h-93l-68 114l-68 -114h-93z" />
    <glyph glyph-name="Otilde" unicode="&#xd5;" horiz-adv-x="729" 
d="M364 -10q-74 0 -134.5 21t-103.5 61t-66.5 94t-23.5 121q0 66 23.5 121t66.5 95.5t103.5 62.5t134.5 22t135 -22t104 -62.5t66 -95t23 -121.5q0 -66 -23 -120.5t-66 -94.5t-103.5 -61t-135.5 -21zM364 106q35 0 63 13.5t48 38t30.5 58.5t10.5 74q0 42 -10.5 75
t-30.5 57.5t-48 37t-63 12.5t-62.5 -13t-47.5 -37t-30.5 -57.5t-10.5 -74.5t10.5 -74.5t30.5 -58t47.5 -38t62.5 -13.5zM436 648q-28 0 -55.5 11.5t-51.5 23t-42 11.5q-36 0 -40 -41h-70q7 79 39.5 111.5t76.5 32.5q27 0 54.5 -11t51.5 -23t41 -12q18 0 28.5 10t13.5 31h69
q-6 -77 -38 -110.5t-77 -33.5z" />
    <glyph glyph-name="Odieresis" unicode="&#xd6;" horiz-adv-x="729" 
d="M364 -10q-74 0 -134.5 21t-103.5 61t-66.5 94t-23.5 121q0 66 23.5 121t66.5 95.5t103.5 62.5t134.5 22t135 -22t104 -62.5t66 -95t23 -121.5q0 -66 -23 -120.5t-66 -94.5t-103.5 -61t-135.5 -21zM364 106q35 0 63 13.5t48 38t30.5 58.5t10.5 74q0 42 -10.5 75
t-30.5 57.5t-48 37t-63 12.5t-62.5 -13t-47.5 -37t-30.5 -57.5t-10.5 -74.5t10.5 -74.5t30.5 -58t47.5 -38t62.5 -13.5zM241 655q-32 0 -55.5 19t-23.5 56t23.5 56.5t55.5 19.5t55.5 -19.5t23.5 -56.5t-23.5 -56t-55.5 -19zM487 655q-32 0 -55 19t-23 56t23 56.5t55 19.5
t55.5 -19.5t23.5 -56.5t-23.5 -56t-55.5 -19z" />
    <glyph glyph-name="multiply" unicode="&#xd7;" horiz-adv-x="518" 
d="M95 60l-58 57l164 164l-160 161l58 59l161 -161l163 162l58 -57l-164 -163l160 -161l-56 -56l-161 160z" />
    <glyph glyph-name="Oslash" unicode="&#xd8;" horiz-adv-x="692" 
d="M145 -50l-64 45l470 617l65 -45zM346 -11q-74 0 -134.5 21.5t-103.5 61t-66.5 94t-23.5 120.5q0 67 23.5 122t66.5 95t103.5 62t134.5 22t135 -22t103.5 -62t66 -95t23.5 -121t-23.5 -121t-66 -94.5t-103 -61t-135.5 -21.5zM346 106q35 0 63 13.5t48 38t30.5 58
t10.5 74.5t-10.5 74.5t-30.5 57.5t-48 37t-63 13t-62.5 -13t-47.5 -37t-30.5 -57.5t-10.5 -74.5t10.5 -74.5t30.5 -58.5t47.5 -38t62.5 -13z" />
    <glyph glyph-name="Ugrave" unicode="&#xd9;" horiz-adv-x="693" 
d="M352 -11q-86 0 -144.5 25.5t-88.5 75t-30 121.5v264h-57v103h288v-103h-62v-265q0 -37 12.5 -63t36.5 -39.5t59 -13.5q36 0 61 13.5t38 39.5t13 63v265h-48v103h233v-103h-57v-263q0 -73 -29 -122.5t-85.5 -75t-139.5 -25.5zM316 641l-96 173h138l43 -173h-85z" />
    <glyph glyph-name="Uacute" unicode="&#xda;" horiz-adv-x="693" 
d="M352 -11q-86 0 -144.5 25.5t-88.5 75t-30 121.5v264h-57v103h288v-103h-62v-265q0 -37 12.5 -63t36.5 -39.5t59 -13.5q36 0 61 13.5t38 39.5t13 63v265h-48v103h233v-103h-57v-263q0 -73 -29 -122.5t-85.5 -75t-139.5 -25.5zM319 641l43 173h138l-97 -173h-84z" />
    <glyph glyph-name="Ucircumflex" unicode="&#xdb;" horiz-adv-x="693" 
d="M352 -11q-86 0 -144.5 25.5t-88.5 75t-30 121.5v264h-57v103h288v-103h-62v-265q0 -37 12.5 -63t36.5 -39.5t59 -13.5q36 0 61 13.5t38 39.5t13 63v265h-48v103h233v-103h-57v-263q0 -73 -29 -122.5t-85.5 -75t-139.5 -25.5zM200 638l86 175h152l84 -175h-93l-68 114
l-68 -114h-93z" />
    <glyph glyph-name="Udieresis" unicode="&#xdc;" horiz-adv-x="693" 
d="M352 -11q-86 0 -144.5 25.5t-88.5 75t-30 121.5v264h-57v103h288v-103h-62v-265q0 -37 12.5 -63t36.5 -39.5t59 -13.5q36 0 61 13.5t38 39.5t13 63v265h-48v103h233v-103h-57v-263q0 -73 -29 -122.5t-85.5 -75t-139.5 -25.5zM238 655q-32 0 -55.5 19t-23.5 56t23.5 56.5
t55.5 19.5t55.5 -19.5t23.5 -56.5t-23.5 -56t-55.5 -19zM484 655q-32 0 -55 19t-23 56t23 56.5t55 19.5t55.5 -19.5t23.5 -56.5t-23.5 -56t-55.5 -19z" />
    <glyph glyph-name="Yacute" unicode="&#xdd;" horiz-adv-x="673" 
d="M190 0v102h66v114l-188 259h-57v103h304v-103h-62l106 -158l105 158h-63v103h261v-103h-58l-179 -259v-114h66v-102h-301zM316 641l43 173h138l-97 -173h-84z" />
    <glyph glyph-name="Thorn" unicode="&#xde;" horiz-adv-x="624" 
d="M50 0v102h57v373h-57v103h291v-103h-65v-63l-30 15h134q114 0 168 -32.5t54 -103.5q0 -73 -53.5 -104.5t-167.5 -31.5h-68v64h36q39 0 59.5 17.5t20.5 54.5q0 34 -21 51t-59 17h-103l30 18v-275h65v-102h-291z" />
    <glyph glyph-name="germandbls" unicode="&#xdf;" horiz-adv-x="584" 
d="M13 0v88h60v290q0 105 60.5 162.5t172.5 57.5q102 0 155 -42.5t53 -112.5q0 -54 -38.5 -91t-111.5 -44l6 8q51 0 95.5 -15.5t72.5 -48t28 -87.5q0 -87 -68.5 -126t-185.5 -39v88q31 0 53.5 9t34.5 28t12 50q0 40 -27 60.5t-74 20.5h-22v83h22q38 0 58 22t20 55
q0 34 -21 54t-59 20q-45 0 -67.5 -28t-22.5 -73v-301h47v-88h-253z" />
    <glyph glyph-name="agrave" unicode="&#xe0;" horiz-adv-x="483" 
d="M164 -10q-61 0 -97 32t-36 85q0 45 22.5 72.5t59 39.5t77.5 12q34 0 63 -6t48 -15l-23 -5v33q0 38 -19.5 56.5t-56.5 18.5q-28 0 -59.5 -8t-72.5 -26l-33 85q50 23 100 34.5t101 11.5q59 0 100.5 -19.5t63 -56t21.5 -87.5v-159h48v-88h-170l-20 62h36q-33 -36 -70 -54
t-83 -18zM215 67q21 0 42 10t40 33l-19 -37v97l19 -21q-14 8 -32.5 13t-40.5 5q-24 0 -42.5 -11.5t-18.5 -39.5q0 -23 13.5 -36t38.5 -13zM193 464l-96 173h138l43 -173h-85z" />
    <glyph glyph-name="aacute" unicode="&#xe1;" horiz-adv-x="483" 
d="M164 -10q-61 0 -97 32t-36 85q0 45 22.5 72.5t59 39.5t77.5 12q34 0 63 -6t48 -15l-23 -5v33q0 38 -19.5 56.5t-56.5 18.5q-28 0 -59.5 -8t-72.5 -26l-33 85q50 23 100 34.5t101 11.5q59 0 100.5 -19.5t63 -56t21.5 -87.5v-159h48v-88h-170l-20 62h36q-33 -36 -70 -54
t-83 -18zM215 67q21 0 42 10t40 33l-19 -37v97l19 -21q-14 8 -32.5 13t-40.5 5q-24 0 -42.5 -11.5t-18.5 -39.5q0 -23 13.5 -36t38.5 -13zM196 464l43 173h138l-97 -173h-84z" />
    <glyph glyph-name="acircumflex" unicode="&#xe2;" horiz-adv-x="483" 
d="M164 -10q-61 0 -97 32t-36 85q0 45 22.5 72.5t59 39.5t77.5 12q34 0 63 -6t48 -15l-23 -5v33q0 38 -19.5 56.5t-56.5 18.5q-28 0 -59.5 -8t-72.5 -26l-33 85q50 23 100 34.5t101 11.5q59 0 100.5 -19.5t63 -56t21.5 -87.5v-159h48v-88h-170l-20 62h36q-33 -36 -70 -54
t-83 -18zM215 67q21 0 42 10t40 33l-19 -37v97l19 -21q-14 8 -32.5 13t-40.5 5q-24 0 -42.5 -11.5t-18.5 -39.5q0 -23 13.5 -36t38.5 -13zM77 461l86 175h152l84 -175h-93l-68 114l-68 -114h-93z" />
    <glyph glyph-name="atilde" unicode="&#xe3;" horiz-adv-x="483" 
d="M164 -10q-61 0 -97 32t-36 85q0 45 22.5 72.5t59 39.5t77.5 12q34 0 63 -6t48 -15l-23 -5v33q0 38 -19.5 56.5t-56.5 18.5q-28 0 -59.5 -8t-72.5 -26l-33 85q50 23 100 34.5t101 11.5q59 0 100.5 -19.5t63 -56t21.5 -87.5v-159h48v-88h-170l-20 62h36q-33 -36 -70 -54
t-83 -18zM215 67q21 0 42 10t40 33l-19 -37v97l19 -21q-14 8 -32.5 13t-40.5 5q-24 0 -42.5 -11.5t-18.5 -39.5q0 -23 13.5 -36t38.5 -13zM310 471q-28 0 -55.5 11.5t-51.5 23t-42 11.5q-36 0 -40 -41h-70q7 79 39.5 111.5t76.5 32.5q27 0 54.5 -11t51.5 -23t41 -12
q18 0 28.5 10t13.5 31h69q-6 -77 -38 -110.5t-77 -33.5z" />
    <glyph glyph-name="adieresis" unicode="&#xe4;" horiz-adv-x="483" 
d="M164 -10q-61 0 -97 32t-36 85q0 45 22.5 72.5t59 39.5t77.5 12q34 0 63 -6t48 -15l-23 -5v33q0 38 -19.5 56.5t-56.5 18.5q-28 0 -59.5 -8t-72.5 -26l-33 85q50 23 100 34.5t101 11.5q59 0 100.5 -19.5t63 -56t21.5 -87.5v-159h48v-88h-170l-20 62h36q-33 -36 -70 -54
t-83 -18zM215 67q21 0 42 10t40 33l-19 -37v97l19 -21q-14 8 -32.5 13t-40.5 5q-24 0 -42.5 -11.5t-18.5 -39.5q0 -23 13.5 -36t38.5 -13zM115 478q-32 0 -55.5 19t-23.5 56t23.5 56.5t55.5 19.5t55.5 -19.5t23.5 -56.5t-23.5 -56t-55.5 -19zM361 478q-32 0 -55 19t-23 56
t23 56.5t55 19.5t55.5 -19.5t23.5 -56.5t-23.5 -56t-55.5 -19z" />
    <glyph glyph-name="aring" unicode="&#xe5;" horiz-adv-x="483" 
d="M164 -10q-61 0 -97 32t-36 85q0 45 22.5 72.5t59 39.5t77.5 12q34 0 63 -6t48 -15l-23 -5v33q0 38 -19.5 56.5t-56.5 18.5q-28 0 -59.5 -8t-72.5 -26l-33 85q50 23 100 34.5t101 11.5q59 0 100.5 -19.5t63 -56t21.5 -87.5v-159h48v-88h-170l-20 62h36q-33 -36 -70 -54
t-83 -18zM215 67q21 0 42 10t40 33l-19 -37v97l19 -21q-14 8 -32.5 13t-40.5 5q-24 0 -42.5 -11.5t-18.5 -39.5q0 -23 13.5 -36t38.5 -13zM238 455q-44 0 -69 24t-25 65q0 42 25 66t69 24t69 -24t25 -66q0 -41 -25 -65.5t-69 -23.5zM238 500q21 0 32.5 11.5t11.5 32.5
q0 22 -11.5 34t-32.5 12t-32.5 -12t-11.5 -34q0 -21 11.5 -32.5t32.5 -11.5z" />
    <glyph glyph-name="ae" unicode="&#xe6;" horiz-adv-x="718" 
d="M178 -10q-67 0 -107 30t-40 87q0 45 25 72.5t65 39.5t86 12h71v10q0 36 -20 54t-56 18q-28 0 -59.5 -8t-72.5 -26l-33 85q48 23 97 34.5t98 11.5q29 0 54 -4.5t45.5 -13.5t35.5 -21q27 19 62 29.5t75 10.5q61 0 104.5 -26.5t66.5 -73t23 -107.5v-27h-275q6 -25 21 -42
t37 -26t49 -9q36 0 68 12t56 31l41 -88q-34 -30 -81 -48t-104 -18t-99.5 16.5t-72.5 45.5q-35 -31 -75 -46t-85 -15zM222 67q20 0 40 8t40 24q-7 15 -12.5 32t-7.5 35h-48q-19 0 -35 -5t-26 -16t-10 -29q0 -23 15.5 -36t43.5 -13zM420 240h141q0 24 -8 40.5t-22.5 25.5
t-36.5 9q-21 0 -36.5 -9t-25 -25.5t-12.5 -40.5z" />
    <glyph glyph-name="ccedilla" unicode="&#xe7;" 
d="M245 -10q-67 0 -118 27t-79.5 75.5t-28.5 112.5q0 62 26.5 108.5t71 72t100.5 25.5q55 0 88.5 -22.5t48.5 -58.5h-27v71h98v-166h-92q-4 37 -25 58t-61 21q-28 0 -48 -12.5t-31 -35.5t-11 -54q0 -34 14 -59t39 -39t59 -14q38 0 68.5 12.5t54.5 33.5l42 -89
q-35 -30 -81.5 -48.5t-107.5 -18.5zM246 -203q-49 0 -89 25v39q14 -5 29 -9t28 -4q15 0 25 7t10 24q0 16 -13.5 24t-44.5 9l35 88h53l-15 -57q38 -6 56 -26.5t18 -46.5q0 -38 -28 -55.5t-64 -17.5z" />
    <glyph glyph-name="egrave" unicode="&#xe8;" 
d="M248 -11q-69 0 -120.5 25t-80.5 72.5t-29 113.5q0 63 28 110t77.5 74t113.5 27q63 0 107.5 -26.5t68 -73t23.5 -107.5v-27h-336l1 63h198q0 24 -7.5 40.5t-22.5 25.5t-37 9q-25 0 -42 -12.5t-25.5 -36t-8.5 -55.5q0 -37 14.5 -61.5t39.5 -37t58 -12.5q36 0 68 12t56 31
l41 -88q-34 -30 -81 -48t-104 -18zM204 464l-96 173h138l43 -173h-85z" />
    <glyph glyph-name="eacute" unicode="&#xe9;" 
d="M248 -11q-69 0 -120.5 25t-80.5 72.5t-29 113.5q0 63 28 110t77.5 74t113.5 27q63 0 107.5 -26.5t68 -73t23.5 -107.5v-27h-336l1 63h198q0 24 -7.5 40.5t-22.5 25.5t-37 9q-25 0 -42 -12.5t-25.5 -36t-8.5 -55.5q0 -37 14.5 -61.5t39.5 -37t58 -12.5q36 0 68 12t56 31
l41 -88q-34 -30 -81 -48t-104 -18zM207 464l43 173h138l-97 -173h-84z" />
    <glyph glyph-name="ecircumflex" unicode="&#xea;" 
d="M248 -11q-69 0 -120.5 25t-80.5 72.5t-29 113.5q0 63 28 110t77.5 74t113.5 27q63 0 107.5 -26.5t68 -73t23.5 -107.5v-27h-336l1 63h198q0 24 -7.5 40.5t-22.5 25.5t-37 9q-25 0 -42 -12.5t-25.5 -36t-8.5 -55.5q0 -37 14.5 -61.5t39.5 -37t58 -12.5q36 0 68 12t56 31
l41 -88q-34 -30 -81 -48t-104 -18zM88 461l86 175h152l84 -175h-93l-68 114l-68 -114h-93z" />
    <glyph glyph-name="edieresis" unicode="&#xeb;" 
d="M248 -11q-69 0 -120.5 25t-80.5 72.5t-29 113.5q0 63 28 110t77.5 74t113.5 27q63 0 107.5 -26.5t68 -73t23.5 -107.5v-27h-336l1 63h198q0 24 -7.5 40.5t-22.5 25.5t-37 9q-25 0 -42 -12.5t-25.5 -36t-8.5 -55.5q0 -37 14.5 -61.5t39.5 -37t58 -12.5q36 0 68 12t56 31
l41 -88q-34 -30 -81 -48t-104 -18zM126 478q-32 0 -55.5 19t-23.5 56t23.5 56.5t55.5 19.5t55.5 -19.5t23.5 -56.5t-23.5 -56t-55.5 -19zM372 478q-32 0 -55 19t-23 56t23 56.5t55 19.5t55.5 -19.5t23.5 -56.5t-23.5 -56t-55.5 -19z" />
    <glyph glyph-name="igrave" unicode="&#xec;" horiz-adv-x="289" 
d="M16 0v94h61v211h-56v95h202v-306h54v-94h-261zM103 463l-96 173h138l43 -173h-85z" />
    <glyph glyph-name="iacute" unicode="&#xed;" horiz-adv-x="289" 
d="M16 0v94h61v211h-56v95h202v-306h54v-94h-261zM106 463l43 173h138l-97 -173h-84z" />
    <glyph glyph-name="icircumflex" unicode="&#xee;" horiz-adv-x="289" 
d="M16 0v94h61v211h-56v95h202v-306h54v-94h-261zM-13 460l86 175h152l84 -175h-93l-68 114l-68 -114h-93z" />
    <glyph glyph-name="idieresis" unicode="&#xef;" horiz-adv-x="289" 
d="M16 0v94h61v211h-56v95h202v-306h54v-94h-261zM25 477q-32 0 -55.5 19t-23.5 56t23.5 56.5t55.5 19.5t55.5 -19.5t23.5 -56.5t-23.5 -56t-55.5 -19zM271 477q-32 0 -55 19t-23 56t23 56.5t55 19.5t55.5 -19.5t23.5 -56.5t-23.5 -56t-55.5 -19z" />
    <glyph glyph-name="eth" unicode="&#xf0;" horiz-adv-x="492" 
d="M242 -10q-69 0 -118 25t-75 70t-26 103q0 56 23 100.5t68 70.5t108 26q24 0 42 -4.5t29 -9.5q-23 37 -60.5 76t-83 76.5t-92.5 70.5l67 83q51 -37 101 -78t93.5 -85.5t77 -93.5t52.5 -102t19 -110q0 -69 -28 -117.5t-78.5 -74.5t-118.5 -26zM242 101q28 0 46.5 11.5
t27.5 31.5t9 46q0 27 -9.5 45.5t-28.5 29t-45 10.5t-44.5 -11t-28.5 -30t-10 -46q0 -26 10 -45.5t28.5 -30.5t44.5 -11zM91 417l-34 70l309 138l36 -69z" />
    <glyph glyph-name="ntilde" unicode="&#xf1;" horiz-adv-x="542" 
d="M16 0v88h52v225h-52v87h190l3 -49l-37 -14q41 34 84 53.5t90 19.5q65 0 101 -39.5t36 -99.5v-183h51v-88h-242v88h42v159q0 30 -14 46.5t-39 16.5q-24 0 -48 -10.5t-47 -28.5l31 61v-244h43v-88h-244zM339 471q-28 0 -55.5 11.5t-51.5 23t-42 11.5q-36 0 -40 -41h-70
q7 79 39.5 111.5t76.5 32.5q27 0 54.5 -11t51.5 -23t41 -12q18 0 28.5 10t13.5 31h69q-6 -77 -38 -110.5t-77 -33.5z" />
    <glyph glyph-name="ograve" unicode="&#xf2;" horiz-adv-x="482" 
d="M241 -11q-67 0 -117 26.5t-78 74.5t-28 111t28 110t78 73.5t117 26.5t117 -26.5t78 -73.5t28 -110t-28 -111t-78 -74.5t-117 -26.5zM241 101q26 0 45.5 12t29.5 34.5t10 53.5t-10 53t-29.5 34t-45.5 12q-27 0 -45.5 -12t-29 -34t-10.5 -53t10.5 -53.5t29 -34.5t45.5 -12z
M196 464l-96 173h138l43 -173h-85z" />
    <glyph glyph-name="oacute" unicode="&#xf3;" horiz-adv-x="482" 
d="M241 -11q-67 0 -117 26.5t-78 74.5t-28 111t28 110t78 73.5t117 26.5t117 -26.5t78 -73.5t28 -110t-28 -111t-78 -74.5t-117 -26.5zM241 101q26 0 45.5 12t29.5 34.5t10 53.5t-10 53t-29.5 34t-45.5 12q-27 0 -45.5 -12t-29 -34t-10.5 -53t10.5 -53.5t29 -34.5t45.5 -12z
M199 464l43 173h138l-97 -173h-84z" />
    <glyph glyph-name="ocircumflex" unicode="&#xf4;" horiz-adv-x="482" 
d="M241 -11q-67 0 -117 26.5t-78 74.5t-28 111t28 110t78 73.5t117 26.5t117 -26.5t78 -73.5t28 -110t-28 -111t-78 -74.5t-117 -26.5zM241 101q26 0 45.5 12t29.5 34.5t10 53.5t-10 53t-29.5 34t-45.5 12q-27 0 -45.5 -12t-29 -34t-10.5 -53t10.5 -53.5t29 -34.5t45.5 -12z
M80 461l86 175h152l84 -175h-93l-68 114l-68 -114h-93z" />
    <glyph glyph-name="otilde" unicode="&#xf5;" horiz-adv-x="482" 
d="M241 -11q-67 0 -117 26.5t-78 74.5t-28 111t28 110t78 73.5t117 26.5t117 -26.5t78 -73.5t28 -110t-28 -111t-78 -74.5t-117 -26.5zM241 101q26 0 45.5 12t29.5 34.5t10 53.5t-10 53t-29.5 34t-45.5 12q-27 0 -45.5 -12t-29 -34t-10.5 -53t10.5 -53.5t29 -34.5t45.5 -12z
M313 471q-28 0 -55.5 11.5t-51.5 23t-42 11.5q-36 0 -40 -41h-70q7 79 39.5 111.5t76.5 32.5q27 0 54.5 -11t51.5 -23t41 -12q18 0 28.5 10t13.5 31h69q-6 -77 -38 -110.5t-77 -33.5z" />
    <glyph glyph-name="odieresis" unicode="&#xf6;" horiz-adv-x="482" 
d="M241 -11q-67 0 -117 26.5t-78 74.5t-28 111t28 110t78 73.5t117 26.5t117 -26.5t78 -73.5t28 -110t-28 -111t-78 -74.5t-117 -26.5zM241 101q26 0 45.5 12t29.5 34.5t10 53.5t-10 53t-29.5 34t-45.5 12q-27 0 -45.5 -12t-29 -34t-10.5 -53t10.5 -53.5t29 -34.5t45.5 -12z
M118 478q-32 0 -55.5 19t-23.5 56t23.5 56.5t55.5 19.5t55.5 -19.5t23.5 -56.5t-23.5 -56t-55.5 -19zM364 478q-32 0 -55 19t-23 56t23 56.5t55 19.5t55.5 -19.5t23.5 -56.5t-23.5 -56t-55.5 -19z" />
    <glyph glyph-name="divide" unicode="&#xf7;" horiz-adv-x="606" 
d="M77 242v82h452v-82h-452zM248 36v113h112v-113h-112zM248 418v112h112v-112h-112z" />
    <glyph glyph-name="oslash" unicode="&#xf8;" horiz-adv-x="514" 
d="M137 -59l-43 20l257 494l43 -20zM241 -11q-67 0 -117 26.5t-78 74.5t-28 111t28 110t78 73.5t117 26.5t117 -26.5t78 -73.5t28 -110t-28 -111t-78 -74.5t-117 -26.5zM241 101q26 0 45.5 12t29.5 34.5t10 53.5t-10 53t-29.5 34t-45.5 12q-27 0 -45.5 -12t-29 -34
t-10.5 -53t10.5 -53.5t29 -34.5t45.5 -12z" />
    <glyph glyph-name="ugrave" unicode="&#xf9;" horiz-adv-x="540" 
d="M197 -10q-46 0 -76.5 19t-45.5 51t-15 70v183h-50v87h199v-248q0 -29 13.5 -45.5t39.5 -16.5q25 0 49.5 12t45.5 33l-30 -64v242h-44v87h192v-312h52v-88h-188l-5 52l37 14q-39 -35 -82 -55.5t-92 -20.5zM210 464l-96 173h138l43 -173h-85z" />
    <glyph glyph-name="uacute" unicode="&#xfa;" horiz-adv-x="540" 
d="M197 -10q-46 0 -76.5 19t-45.5 51t-15 70v183h-50v87h199v-248q0 -29 13.5 -45.5t39.5 -16.5q25 0 49.5 12t45.5 33l-30 -64v242h-44v87h192v-312h52v-88h-188l-5 52l37 14q-39 -35 -82 -55.5t-92 -20.5zM213 464l43 173h138l-97 -173h-84z" />
    <glyph glyph-name="ucircumflex" unicode="&#xfb;" horiz-adv-x="540" 
d="M197 -10q-46 0 -76.5 19t-45.5 51t-15 70v183h-50v87h199v-248q0 -29 13.5 -45.5t39.5 -16.5q25 0 49.5 12t45.5 33l-30 -64v242h-44v87h192v-312h52v-88h-188l-5 52l37 14q-39 -35 -82 -55.5t-92 -20.5zM94 461l86 175h152l84 -175h-93l-68 114l-68 -114h-93z" />
    <glyph glyph-name="udieresis" unicode="&#xfc;" horiz-adv-x="540" 
d="M197 -10q-46 0 -76.5 19t-45.5 51t-15 70v183h-50v87h199v-248q0 -29 13.5 -45.5t39.5 -16.5q25 0 49.5 12t45.5 33l-30 -64v242h-44v87h192v-312h52v-88h-188l-5 52l37 14q-39 -35 -82 -55.5t-92 -20.5zM132 478q-32 0 -55.5 19t-23.5 56t23.5 56.5t55.5 19.5
t55.5 -19.5t23.5 -56.5t-23.5 -56t-55.5 -19zM378 478q-32 0 -55 19t-23 56t23 56.5t55 19.5t55.5 -19.5t23.5 -56.5t-23.5 -56t-55.5 -19z" />
    <glyph glyph-name="yacute" unicode="&#xfd;" horiz-adv-x="523" 
d="M89 -169v108h36q24 0 40 4.5t28 15.5t22 32l17 35h-40l-149 287h-41v87h241v-87h-48l83 -178l78 178h-50v87h217v-87h-39l-167 -340q-25 -49 -45.5 -80.5t-51 -46.5t-85.5 -15h-46zM233 464l43 173h138l-97 -173h-84z" />
    <glyph glyph-name="thorn" unicode="&#xfe;" horiz-adv-x="536" 
d="M13 -187v88h50v573h-51v88h197v-189q27 19 58 29t66 10q57 0 97.5 -26t62.5 -72.5t22 -108.5q0 -65 -24 -113t-66 -74t-96 -26q-36 0 -66.5 10t-53.5 28v-129h63v-88h-259zM274 102q39 0 63.5 25.5t24.5 74.5q0 45 -23 72.5t-62 27.5q-18 0 -35 -6.5t-33 -18.5v-154
q14 -10 31 -15.5t34 -5.5z" />
    <glyph glyph-name="ydieresis" unicode="&#xff;" horiz-adv-x="523" 
d="M89 -169v108h36q24 0 40 4.5t28 15.5t22 32l17 35h-40l-149 287h-41v87h241v-87h-48l83 -178l78 178h-50v87h217v-87h-39l-167 -340q-25 -49 -45.5 -80.5t-51 -46.5t-85.5 -15h-46zM152 478q-32 0 -55.5 19t-23.5 56t23.5 56.5t55.5 19.5t55.5 -19.5t23.5 -56.5
t-23.5 -56t-55.5 -19zM398 478q-32 0 -55 19t-23 56t23 56.5t55 19.5t55.5 -19.5t23.5 -56.5t-23.5 -56t-55.5 -19z" />
    <glyph glyph-name="Amacron" unicode="&#x100;" horiz-adv-x="730" 
d="M22 0v102h59l141 373h-56v103h398v-103h-57l143 -373h58v-102h-294v102h64l-33 102h-179l-33 -102h56v-102h-267zM296 300h120l-55 175h-6zM234 646v79h262v-79h-262z" />
    <glyph glyph-name="amacron" unicode="&#x101;" horiz-adv-x="483" 
d="M164 -10q-61 0 -97 32t-36 85q0 45 22.5 72.5t59 39.5t77.5 12q34 0 63 -6t48 -15l-23 -5v33q0 38 -19.5 56.5t-56.5 18.5q-28 0 -59.5 -8t-72.5 -26l-33 85q50 23 100 34.5t101 11.5q59 0 100.5 -19.5t63 -56t21.5 -87.5v-159h48v-88h-170l-20 62h36q-33 -36 -70 -54
t-83 -18zM215 67q21 0 42 10t40 33l-19 -37v97l19 -21q-14 8 -32.5 13t-40.5 5q-24 0 -42.5 -11.5t-18.5 -39.5q0 -23 13.5 -36t38.5 -13zM107 469v79h262v-79h-262z" />
    <glyph glyph-name="Abreve" unicode="&#x102;" horiz-adv-x="730" 
d="M22 0v102h59l141 373h-56v103h398v-103h-57l143 -373h58v-102h-294v102h64l-33 102h-179l-33 -102h56v-102h-267zM296 300h120l-55 175h-6zM365 646q-75 0 -115.5 36.5t-44.5 105.5h97q9 -62 63 -62q27 0 43.5 16t19.5 46h97q-6 -69 -46.5 -105.5t-113.5 -36.5z" />
    <glyph glyph-name="abreve" unicode="&#x103;" horiz-adv-x="483" 
d="M164 -10q-61 0 -97 32t-36 85q0 45 22.5 72.5t59 39.5t77.5 12q34 0 63 -6t48 -15l-23 -5v33q0 38 -19.5 56.5t-56.5 18.5q-28 0 -59.5 -8t-72.5 -26l-33 85q50 23 100 34.5t101 11.5q59 0 100.5 -19.5t63 -56t21.5 -87.5v-159h48v-88h-170l-20 62h36q-33 -36 -70 -54
t-83 -18zM215 67q21 0 42 10t40 33l-19 -37v97l19 -21q-14 8 -32.5 13t-40.5 5q-24 0 -42.5 -11.5t-18.5 -39.5q0 -23 13.5 -36t38.5 -13zM238 469q-75 0 -115.5 36.5t-44.5 105.5h97q9 -62 63 -62q27 0 43.5 16t19.5 46h97q-6 -69 -46.5 -105.5t-113.5 -36.5z" />
    <glyph glyph-name="Aogonek" unicode="&#x104;" horiz-adv-x="730" 
d="M22 0v102h59l141 373h-56v103h398v-103h-57l143 -373h58v-102h-294v102h64l-33 102h-179l-33 -102h56v-102h-267zM296 300h120l-55 175h-6zM592 -193q-43 0 -67 23.5t-24 58.5q0 29 17 57t49 54h52q-20 -23 -31.5 -42t-11.5 -38q0 -18 14 -30t38 -12q21 0 42 8v-61
q-20 -9 -38.5 -13.5t-39.5 -4.5z" />
    <glyph glyph-name="aogonek" unicode="&#x105;" horiz-adv-x="483" 
d="M164 -10q-61 0 -97 32t-36 85q0 45 22.5 72.5t59 39.5t77.5 12q34 0 63 -6t48 -15l-23 -5v33q0 38 -19.5 56.5t-56.5 18.5q-28 0 -59.5 -8t-72.5 -26l-33 85q50 23 100 34.5t101 11.5q59 0 100.5 -19.5t63 -56t21.5 -87.5v-159h48v-88h-170l-20 62h36q-33 -36 -70 -54
t-83 -18zM215 67q21 0 42 10t40 33l-19 -37v97l19 -21q-14 8 -32.5 13t-40.5 5q-24 0 -42.5 -11.5t-18.5 -39.5q0 -23 13.5 -36t38.5 -13zM400 -193q-43 0 -67 23.5t-24 58.5q0 29 17 57t49 54h52q-20 -23 -31.5 -42t-11.5 -38q0 -18 14 -30t38 -12q21 0 42 8v-61
q-20 -9 -38.5 -13.5t-39.5 -4.5z" />
    <glyph glyph-name="Cacute" unicode="&#x106;" horiz-adv-x="715" 
d="M365 -10q-71 0 -131 20.5t-104.5 59t-69 93.5t-24.5 125q0 92 40.5 159.5t110 104t159.5 36.5q63 0 110.5 -19t78 -52t41.5 -78l-40 29v110h112v-206h-96q-26 49 -65.5 74.5t-98.5 25.5q-55 0 -94.5 -23t-61 -63.5t-21.5 -95.5q0 -42 12 -75.5t33.5 -58t51.5 -37.5
t67 -13q41 0 72 15t52 44.5t31 72.5l133 -46q-14 -61 -53.5 -106.5t-101 -70.5t-143.5 -25zM325 641l43 173h138l-97 -173h-84z" />
    <glyph glyph-name="cacute" unicode="&#x107;" 
d="M245 -10q-67 0 -118 27t-79.5 75.5t-28.5 112.5q0 62 26.5 108.5t71 72t100.5 25.5q55 0 88.5 -22.5t48.5 -58.5h-27v71h98v-166h-92q-4 37 -25 58t-61 21q-28 0 -48 -12.5t-31 -35.5t-11 -54q0 -34 14 -59t39 -39t59 -14q38 0 68.5 12.5t54.5 33.5l42 -89
q-35 -30 -81.5 -48.5t-107.5 -18.5zM199 464l43 173h138l-97 -173h-84z" />
    <glyph glyph-name="Ccircumflex" unicode="&#x108;" horiz-adv-x="715" 
d="M365 -10q-71 0 -131 20.5t-104.5 59t-69 93.5t-24.5 125q0 92 40.5 159.5t110 104t159.5 36.5q63 0 110.5 -19t78 -52t41.5 -78l-40 29v110h112v-206h-96q-26 49 -65.5 74.5t-98.5 25.5q-55 0 -94.5 -23t-61 -63.5t-21.5 -95.5q0 -42 12 -75.5t33.5 -58t51.5 -37.5
t67 -13q41 0 72 15t52 44.5t31 72.5l133 -46q-14 -61 -53.5 -106.5t-101 -70.5t-143.5 -25zM206 638l86 175h152l84 -175h-93l-68 114l-68 -114h-93z" />
    <glyph glyph-name="ccircumflex" unicode="&#x109;" 
d="M245 -10q-67 0 -118 27t-79.5 75.5t-28.5 112.5q0 62 26.5 108.5t71 72t100.5 25.5q55 0 88.5 -22.5t48.5 -58.5h-27v71h98v-166h-92q-4 37 -25 58t-61 21q-28 0 -48 -12.5t-31 -35.5t-11 -54q0 -34 14 -59t39 -39t59 -14q38 0 68.5 12.5t54.5 33.5l42 -89
q-35 -30 -81.5 -48.5t-107.5 -18.5zM80 461l86 175h152l84 -175h-93l-68 114l-68 -114h-93z" />
    <glyph glyph-name="Cdotaccent" unicode="&#x10a;" horiz-adv-x="715" 
d="M365 -10q-71 0 -131 20.5t-104.5 59t-69 93.5t-24.5 125q0 92 40.5 159.5t110 104t159.5 36.5q63 0 110.5 -19t78 -52t41.5 -78l-40 29v110h112v-206h-96q-26 49 -65.5 74.5t-98.5 25.5q-55 0 -94.5 -23t-61 -63.5t-21.5 -95.5q0 -42 12 -75.5t33.5 -58t51.5 -37.5
t67 -13q41 0 72 15t52 44.5t31 72.5l133 -46q-14 -61 -53.5 -106.5t-101 -70.5t-143.5 -25zM367 655q-37 0 -60 22t-23 58q0 35 23 57t60 22q38 0 60 -21.5t22 -57.5q1 -35 -21.5 -57.5t-60.5 -22.5z" />
    <glyph glyph-name="cdotaccent" unicode="&#x10b;" 
d="M245 -10q-67 0 -118 27t-79.5 75.5t-28.5 112.5q0 62 26.5 108.5t71 72t100.5 25.5q55 0 88.5 -22.5t48.5 -58.5h-27v71h98v-166h-92q-4 37 -25 58t-61 21q-28 0 -48 -12.5t-31 -35.5t-11 -54q0 -34 14 -59t39 -39t59 -14q38 0 68.5 12.5t54.5 33.5l42 -89
q-35 -30 -81.5 -48.5t-107.5 -18.5zM241 478q-37 0 -60 22t-23 58q0 35 23 57t60 22q38 0 60 -21.5t22 -57.5q1 -35 -21.5 -57.5t-60.5 -22.5z" />
    <glyph glyph-name="Ccaron" unicode="&#x10c;" horiz-adv-x="715" 
d="M365 -10q-71 0 -131 20.5t-104.5 59t-69 93.5t-24.5 125q0 92 40.5 159.5t110 104t159.5 36.5q63 0 110.5 -19t78 -52t41.5 -78l-40 29v110h112v-206h-96q-26 49 -65.5 74.5t-98.5 25.5q-55 0 -94.5 -23t-61 -63.5t-21.5 -95.5q0 -42 12 -75.5t33.5 -58t51.5 -37.5
t67 -13q41 0 72 15t52 44.5t31 72.5l133 -46q-14 -61 -53.5 -106.5t-101 -70.5t-143.5 -25zM291 638l-78 174h98l60 -113l60 113h89l-69 -174h-160z" />
    <glyph glyph-name="ccaron" unicode="&#x10d;" 
d="M245 -10q-67 0 -118 27t-79.5 75.5t-28.5 112.5q0 62 26.5 108.5t71 72t100.5 25.5q55 0 88.5 -22.5t48.5 -58.5h-27v71h98v-166h-92q-4 37 -25 58t-61 21q-28 0 -48 -12.5t-31 -35.5t-11 -54q0 -34 14 -59t39 -39t59 -14q38 0 68.5 12.5t54.5 33.5l42 -89
q-35 -30 -81.5 -48.5t-107.5 -18.5zM165 461l-78 174h98l60 -113l60 113h89l-69 -174h-160z" />
    <glyph glyph-name="Dcaron" unicode="&#x10e;" horiz-adv-x="732" 
d="M47 0v102h58v373h-58v103h343q77 0 134 -22.5t95.5 -61.5t57.5 -91t19 -112q0 -65 -19.5 -118.5t-57 -92t-95 -59.5t-133.5 -21h-344zM274 102h86q43 0 73 13t49.5 37.5t28.5 59.5t9 79q0 42 -9 76t-28 58t-49.5 37t-72.5 13h-87v-373zM304 638l-78 174h98l60 -113
l60 113h89l-69 -174h-160z" />
    <glyph glyph-name="dcaron" unicode="&#x10f;" horiz-adv-x="637" 
d="M205 -10q-55 0 -97 26t-65.5 74t-23.5 112q0 63 23.5 110t65.5 72.5t95 25.5q50 0 85.5 -18.5t57.5 -49.5l-25 -9v167h-63v88h211v-500h49v-88h-186l-4 48l39 13q-32 -33 -71 -52t-91 -19zM259 100q27 0 48 10.5t40 29.5l-26 -50v215l23 -50q-17 22 -38.5 33.5
t-47.5 11.5q-25 0 -44.5 -11.5t-30.5 -34t-11 -56.5q0 -29 11.5 -51t30.5 -34.5t45 -12.5zM514 335v49q34 3 50.5 21.5t16.5 60.5h-68v122h141v-101q0 -71 -30.5 -111.5t-109.5 -40.5z" />
    <glyph glyph-name="Dcroat" unicode="&#x110;" horiz-adv-x="749" 
d="M47 0v102h58v373h-58v103h343q77 0 134 -22.5t95.5 -61.5t57.5 -91t19 -112q0 -65 -19.5 -118.5t-57 -92t-95 -59.5t-133.5 -21h-344zM274 102h86q43 0 73 13t49.5 37.5t28.5 59.5t9 79q0 42 -9 76t-28 58t-49.5 37t-72.5 13h-87v-373zM47 247v91h281v-91h-281z" />
    <glyph glyph-name="dcroat" unicode="&#x111;" horiz-adv-x="555" 
d="M205 -10q-55 0 -97 26t-65.5 74t-23.5 112q0 63 23.5 110t65.5 72.5t95 25.5q50 0 85.5 -18.5t57.5 -49.5l-25 -9v248h148v-487h48v-94h-185l-4 48l39 13q-32 -33 -71 -52t-91 -19zM259 100q27 0 48 10.5t40 29.5l-26 -50v215l23 -50q-17 22 -38.5 33.5t-47.5 11.5
q-25 0 -44.5 -11.5t-30.5 -34t-11 -56.5q0 -29 11.5 -51t30.5 -34.5t45 -12.5zM215 459v64h302v-64h-302z" />
    <glyph glyph-name="Emacron" unicode="&#x112;" horiz-adv-x="651" 
d="M47 0v102h57v373h-57v103h547v-200h-105v97h-215v-132h90v58h84v-211h-84v58h-90v-145h219v107h105v-210h-551zM213 646v79h262v-79h-262z" />
    <glyph glyph-name="emacron" unicode="&#x113;" 
d="M248 -11q-69 0 -120.5 25t-80.5 72.5t-29 113.5q0 63 28 110t77.5 74t113.5 27q63 0 107.5 -26.5t68 -73t23.5 -107.5v-27h-336l1 63h198q0 24 -7.5 40.5t-22.5 25.5t-37 9q-25 0 -42 -12.5t-25.5 -36t-8.5 -55.5q0 -37 14.5 -61.5t39.5 -37t58 -12.5q36 0 68 12t56 31
l41 -88q-34 -30 -81 -48t-104 -18zM118 469v79h262v-79h-262z" />
    <glyph glyph-name="Ebreve" unicode="&#x114;" horiz-adv-x="651" 
d="M47 0v102h57v373h-57v103h547v-200h-105v97h-215v-132h90v58h84v-211h-84v58h-90v-145h219v107h105v-210h-551zM344 646q-75 0 -115.5 36.5t-44.5 105.5h97q9 -62 63 -62q27 0 43.5 16t19.5 46h97q-6 -69 -46.5 -105.5t-113.5 -36.5z" />
    <glyph glyph-name="ebreve" unicode="&#x115;" 
d="M248 -11q-69 0 -120.5 25t-80.5 72.5t-29 113.5q0 63 28 110t77.5 74t113.5 27q63 0 107.5 -26.5t68 -73t23.5 -107.5v-27h-336l1 63h198q0 24 -7.5 40.5t-22.5 25.5t-37 9q-25 0 -42 -12.5t-25.5 -36t-8.5 -55.5q0 -37 14.5 -61.5t39.5 -37t58 -12.5q36 0 68 12t56 31
l41 -88q-34 -30 -81 -48t-104 -18zM249 469q-75 0 -115.5 36.5t-44.5 105.5h97q9 -62 63 -62q27 0 43.5 16t19.5 46h97q-6 -69 -46.5 -105.5t-113.5 -36.5z" />
    <glyph glyph-name="Edotaccent" unicode="&#x116;" horiz-adv-x="651" 
d="M47 0v102h57v373h-57v103h547v-200h-105v97h-215v-132h90v58h84v-211h-84v58h-90v-145h219v107h105v-210h-551zM344 655q-37 0 -60 22t-23 58q0 35 23 57t60 22q38 0 60 -21.5t22 -57.5q1 -35 -21.5 -57.5t-60.5 -22.5z" />
    <glyph glyph-name="edotaccent" unicode="&#x117;" 
d="M248 -11q-69 0 -120.5 25t-80.5 72.5t-29 113.5q0 63 28 110t77.5 74t113.5 27q63 0 107.5 -26.5t68 -73t23.5 -107.5v-27h-336l1 63h198q0 24 -7.5 40.5t-22.5 25.5t-37 9q-25 0 -42 -12.5t-25.5 -36t-8.5 -55.5q0 -37 14.5 -61.5t39.5 -37t58 -12.5q36 0 68 12t56 31
l41 -88q-34 -30 -81 -48t-104 -18zM249 478q-37 0 -60 22t-23 58q0 35 23 57t60 22q38 0 60 -21.5t22 -57.5q1 -35 -21.5 -57.5t-60.5 -22.5z" />
    <glyph glyph-name="Eogonek" unicode="&#x118;" horiz-adv-x="651" 
d="M47 0v102h57v373h-57v103h547v-200h-105v97h-215v-132h90v58h84v-211h-84v58h-90v-145h219v107h105v-210h-551zM516 -193q-43 0 -67 23.5t-24 58.5q0 29 17 57t49 54h52q-20 -23 -31.5 -42t-11.5 -38q0 -18 14 -30t38 -12q21 0 42 8v-61q-20 -9 -38.5 -13.5t-39.5 -4.5z
" />
    <glyph glyph-name="eogonek" unicode="&#x119;" 
d="M248 -11q-69 0 -120.5 25t-80.5 72.5t-29 113.5q0 63 28 110t77.5 74t113.5 27q63 0 107.5 -26.5t68 -73t23.5 -107.5v-27h-336l1 63h198q0 24 -7.5 40.5t-22.5 25.5t-37 9q-25 0 -42 -12.5t-25.5 -36t-8.5 -55.5q0 -37 14.5 -61.5t39.5 -37t58 -12.5q36 0 68 12t56 31
l41 -88q-34 -30 -81 -48t-104 -18zM277 -191q-43 0 -67 23.5t-24 58.5q0 29 17 57t49 54h52q-20 -23 -31.5 -42t-11.5 -38q0 -18 14 -30t38 -12q21 0 42 8v-61q-20 -9 -38.5 -13.5t-39.5 -4.5z" />
    <glyph glyph-name="Ecaron" unicode="&#x11a;" horiz-adv-x="651" 
d="M47 0v102h57v373h-57v103h547v-200h-105v97h-215v-132h90v58h84v-211h-84v58h-90v-145h219v107h105v-210h-551zM268 638l-78 174h98l60 -113l60 113h89l-69 -174h-160z" />
    <glyph glyph-name="ecaron" unicode="&#x11b;" 
d="M248 -11q-69 0 -120.5 25t-80.5 72.5t-29 113.5q0 63 28 110t77.5 74t113.5 27q63 0 107.5 -26.5t68 -73t23.5 -107.5v-27h-336l1 63h198q0 24 -7.5 40.5t-22.5 25.5t-37 9q-25 0 -42 -12.5t-25.5 -36t-8.5 -55.5q0 -37 14.5 -61.5t39.5 -37t58 -12.5q36 0 68 12t56 31
l41 -88q-34 -30 -81 -48t-104 -18zM173 461l-78 174h98l60 -113l60 113h89l-69 -174h-160z" />
    <glyph glyph-name="Gcircumflex" unicode="&#x11c;" horiz-adv-x="733" 
d="M367 -10q-98 0 -172.5 37t-116.5 104.5t-42 155.5q0 90 39.5 157.5t109.5 105.5t162 38q97 0 156.5 -41.5t77.5 -106.5l-41 25v113h113v-207h-97q-25 49 -65.5 75t-101.5 26q-54 0 -93.5 -21.5t-61 -62t-21.5 -99.5q0 -57 20 -98t56.5 -63t84.5 -22q32 0 58 8t45 24
t29.5 40t10.5 57l55 -23h-156v103h262v-41q0 -72 -23 -125.5t-65.5 -88.5t-99 -52.5t-123.5 -17.5zM228 638l86 175h152l84 -175h-93l-68 114l-68 -114h-93z" />
    <glyph glyph-name="gcircumflex" unicode="&#x11d;" horiz-adv-x="535" 
d="M253 -195q-48 0 -91.5 9t-87.5 23l24 91q39 -12 69 -17.5t59 -5.5q49 0 74 24.5t25 71.5v45l38 18q-33 -37 -67 -54.5t-84 -17.5q-59 0 -102 25.5t-66 72t-23 110.5t23 111t65.5 73t101.5 26q48 0 84.5 -21t56.5 -49l-20 -8l1 68h189v-87h-49v-292q0 -72 -27 -120
t-76 -72t-117 -24zM257 304q-24 -1 -43 -13t-29.5 -35t-10.5 -57q0 -31 11.5 -53.5t30.5 -35t45 -12.5t49.5 10.5t43.5 30.5l-29 -61l-1 238l25 -58q-20 23 -43.5 34.5t-48.5 11.5zM114 461l86 175h152l84 -175h-93l-68 114l-68 -114h-93z" />
    <glyph glyph-name="Gbreve" unicode="&#x11e;" horiz-adv-x="733" 
d="M367 -10q-98 0 -172.5 37t-116.5 104.5t-42 155.5q0 90 39.5 157.5t109.5 105.5t162 38q97 0 156.5 -41.5t77.5 -106.5l-41 25v113h113v-207h-97q-25 49 -65.5 75t-101.5 26q-54 0 -93.5 -21.5t-61 -62t-21.5 -99.5q0 -57 20 -98t56.5 -63t84.5 -22q32 0 58 8t45 24
t29.5 40t10.5 57l55 -23h-156v103h262v-41q0 -72 -23 -125.5t-65.5 -88.5t-99 -52.5t-123.5 -17.5zM389 646q-75 0 -115.5 36.5t-44.5 105.5h97q9 -62 63 -62q27 0 43.5 16t19.5 46h97q-6 -69 -46.5 -105.5t-113.5 -36.5z" />
    <glyph glyph-name="gbreve" unicode="&#x11f;" horiz-adv-x="535" 
d="M253 -195q-48 0 -91.5 9t-87.5 23l24 91q39 -12 69 -17.5t59 -5.5q49 0 74 24.5t25 71.5v45l38 18q-33 -37 -67 -54.5t-84 -17.5q-59 0 -102 25.5t-66 72t-23 110.5t23 111t65.5 73t101.5 26q48 0 84.5 -21t56.5 -49l-20 -8l1 68h189v-87h-49v-292q0 -72 -27 -120
t-76 -72t-117 -24zM257 304q-24 -1 -43 -13t-29.5 -35t-10.5 -57q0 -31 11.5 -53.5t30.5 -35t45 -12.5t49.5 10.5t43.5 30.5l-29 -61l-1 238l25 -58q-20 23 -43.5 34.5t-48.5 11.5zM275 469q-75 0 -115.5 36.5t-44.5 105.5h97q9 -62 63 -62q27 0 43.5 16t19.5 46h97
q-6 -69 -46.5 -105.5t-113.5 -36.5z" />
    <glyph glyph-name="Gdotaccent" unicode="&#x120;" horiz-adv-x="733" 
d="M367 -10q-98 0 -172.5 37t-116.5 104.5t-42 155.5q0 90 39.5 157.5t109.5 105.5t162 38q97 0 156.5 -41.5t77.5 -106.5l-41 25v113h113v-207h-97q-25 49 -65.5 75t-101.5 26q-54 0 -93.5 -21.5t-61 -62t-21.5 -99.5q0 -57 20 -98t56.5 -63t84.5 -22q32 0 58 8t45 24
t29.5 40t10.5 57l55 -23h-156v103h262v-41q0 -72 -23 -125.5t-65.5 -88.5t-99 -52.5t-123.5 -17.5zM389 655q-37 0 -60 22t-23 58q0 35 23 57t60 22q38 0 60 -21.5t22 -57.5q1 -35 -21.5 -57.5t-60.5 -22.5z" />
    <glyph glyph-name="gdotaccent" unicode="&#x121;" horiz-adv-x="535" 
d="M253 -195q-48 0 -91.5 9t-87.5 23l24 91q39 -12 69 -17.5t59 -5.5q49 0 74 24.5t25 71.5v45l38 18q-33 -37 -67 -54.5t-84 -17.5q-59 0 -102 25.5t-66 72t-23 110.5t23 111t65.5 73t101.5 26q48 0 84.5 -21t56.5 -49l-20 -8l1 68h189v-87h-49v-292q0 -72 -27 -120
t-76 -72t-117 -24zM257 304q-24 -1 -43 -13t-29.5 -35t-10.5 -57q0 -31 11.5 -53.5t30.5 -35t45 -12.5t49.5 10.5t43.5 30.5l-29 -61l-1 238l25 -58q-20 23 -43.5 34.5t-48.5 11.5zM275 478q-37 0 -60 22t-23 58q0 35 23 57t60 22q38 0 60 -21.5t22 -57.5q1 -35 -21.5 -57.5
t-60.5 -22.5z" />
    <glyph glyph-name="uni0122" unicode="&#x122;" horiz-adv-x="733" 
d="M367 -10q-98 0 -172.5 37t-116.5 104.5t-42 155.5q0 90 39.5 157.5t109.5 105.5t162 38q97 0 156.5 -41.5t77.5 -106.5l-41 25v113h113v-207h-97q-25 49 -65.5 75t-101.5 26q-54 0 -93.5 -21.5t-61 -62t-21.5 -99.5q0 -57 20 -98t56.5 -63t84.5 -22q32 0 58 8t45 24
t29.5 40t10.5 57l55 -23h-156v103h262v-41q0 -72 -23 -125.5t-65.5 -88.5t-99 -52.5t-123.5 -17.5zM318 -301v49q31 3 46 21.5t15 57.5h-68v117h141v-96q0 -74 -29.5 -111.5t-104.5 -37.5z" />
    <glyph glyph-name="uni0123" unicode="&#x123;" horiz-adv-x="535" 
d="M253 -195q-48 0 -91.5 9t-87.5 23l24 91q39 -12 69 -17.5t59 -5.5q49 0 74 24.5t25 71.5v45l38 18q-33 -37 -67 -54.5t-84 -17.5q-59 0 -102 25.5t-66 72t-23 110.5t23 111t65.5 73t101.5 26q48 0 84.5 -21t56.5 -49l-20 -8l1 68h189v-87h-49v-292q0 -72 -27 -120
t-76 -72t-117 -24zM257 304q-24 -1 -43 -13t-29.5 -35t-10.5 -57q0 -31 11.5 -53.5t30.5 -35t45 -12.5t49.5 10.5t43.5 30.5l-29 -61l-1 238l25 -58q-20 23 -43.5 34.5t-48.5 11.5zM338 728v-49q-31 -3 -46 -21.5t-15 -57.5h68v-117h-141v96q0 74 29.5 111.5t104.5 37.5z
" />
    <glyph glyph-name="Hcircumflex" unicode="&#x124;" horiz-adv-x="748" 
d="M47 0v102h57v373h-57v103h284v-103h-57v-133h201v133h-58v103h284v-103h-58v-373h58v-102h-284v102h58v144h-201v-144h57v-102h-284zM214 638l86 175h152l84 -175h-93l-68 114l-68 -114h-93z" />
    <glyph glyph-name="hcircumflex" unicode="&#x125;" horiz-adv-x="540" 
d="M11 0v88h51v412h-50v88h199v-238l-45 -14q41 34 84 54t92 20q65 0 100.5 -39.5t35.5 -99.5v-183h52v-88h-242v88h42v159q0 30 -14 46.5t-40 16.5q-24 0 -49 -11t-47 -29l31 62v-244h42v-88h-242zM-24 649l86 175h152l84 -175h-93l-68 114l-68 -114h-93z" />
    <glyph glyph-name="Hbar" unicode="&#x126;" horiz-adv-x="748" 
d="M47 0v102h57v373h-57v103h284v-103h-57v-133h201v133h-58v103h284v-103h-58v-373h58v-102h-284v102h58v144h-201v-144h57v-102h-284zM52 440h687v-61h-687v61z" />
    <glyph glyph-name="hbar" unicode="&#x127;" horiz-adv-x="540" 
d="M11 0v88h51v412h-50v88h199v-238l-45 -14q41 34 84 54t92 20q65 0 100.5 -39.5t35.5 -99.5v-183h52v-88h-242v88h42v159q0 30 -14 46.5t-40 16.5q-24 0 -49 -11t-47 -29l31 62v-244h42v-88h-242zM6 657v79h262v-79h-262z" />
    <glyph glyph-name="Itilde" unicode="&#x128;" horiz-adv-x="384" 
d="M50 0v102h57v373h-57v103h284v-103h-58v-373h58v-102h-284zM264 648q-28 0 -55.5 11.5t-51.5 23t-42 11.5q-36 0 -40 -41h-70q7 79 39.5 111.5t76.5 32.5q27 0 54.5 -11t51.5 -23t41 -12q18 0 28.5 10t13.5 31h69q-6 -77 -38 -110.5t-77 -33.5z" />
    <glyph glyph-name="itilde" unicode="&#x129;" horiz-adv-x="289" 
d="M16 0v94h61v211h-56v95h202v-306h54v-94h-261zM220 470q-28 0 -55.5 11.5t-51.5 23t-42 11.5q-36 0 -40 -41h-70q7 79 39.5 111.5t76.5 32.5q27 0 54.5 -11t51.5 -23t41 -12q18 0 28.5 10t13.5 31h69q-6 -77 -38 -110.5t-77 -33.5z" />
    <glyph glyph-name="Imacron" unicode="&#x12a;" horiz-adv-x="384" 
d="M50 0v102h57v373h-57v103h284v-103h-58v-373h58v-102h-284zM61 646v79h262v-79h-262z" />
    <glyph glyph-name="imacron" unicode="&#x12b;" horiz-adv-x="289" 
d="M16 0v94h61v211h-56v95h202v-306h54v-94h-261zM17 468v79h262v-79h-262z" />
    <glyph glyph-name="Ibreve" unicode="&#x12c;" horiz-adv-x="384" 
d="M50 0v102h57v373h-57v103h284v-103h-58v-373h58v-102h-284zM192 646q-75 0 -115.5 36.5t-44.5 105.5h97q9 -62 63 -62q27 0 43.5 16t19.5 46h97q-6 -69 -46.5 -105.5t-113.5 -36.5z" />
    <glyph glyph-name="ibreve" unicode="&#x12d;" horiz-adv-x="289" 
d="M16 0v94h61v211h-56v95h202v-306h54v-94h-261zM148 468q-75 0 -115.5 36.5t-44.5 105.5h97q9 -62 63 -62q27 0 43.5 16t19.5 46h97q-6 -69 -46.5 -105.5t-113.5 -36.5z" />
    <glyph glyph-name="Iogonek" unicode="&#x12e;" horiz-adv-x="384" 
d="M50 0v102h57v373h-57v103h284v-103h-58v-373h58v-102h-284zM196 -193q-43 0 -67 23.5t-24 58.5q0 29 17 57t49 54h52q-20 -23 -31.5 -42t-11.5 -38q0 -18 14 -30t38 -12q21 0 42 8v-61q-20 -9 -38.5 -13.5t-39.5 -4.5z" />
    <glyph glyph-name="iogonek" unicode="&#x12f;" horiz-adv-x="289" 
d="M16 0v94h61v211h-56v95h202v-306h54v-94h-261zM134 -193q-43 0 -67 23.5t-24 58.5q0 29 17 57t49 54h52q-20 -23 -31.5 -42t-11.5 -38q0 -18 14 -30t38 -12q21 0 42 8v-61q-20 -9 -38.5 -13.5t-39.5 -4.5zM148 477q-37 0 -60 22t-23 58q0 35 23 57t60 22q38 0 60 -21.5
t22 -57.5q1 -35 -21.5 -57.5t-60.5 -22.5z" />
    <glyph glyph-name="Idotaccent" unicode="&#x130;" horiz-adv-x="384" 
d="M50 0v102h57v373h-57v103h284v-103h-58v-373h58v-102h-284zM192 655q-37 0 -60 22t-23 58q0 35 23 57t60 22q38 0 60 -21.5t22 -57.5q1 -35 -21.5 -57.5t-60.5 -22.5z" />
    <glyph glyph-name="dotlessi" unicode="&#x131;" horiz-adv-x="289" 
d="M16 0v94h61v211h-56v95h202v-306h54v-94h-261z" />
    <glyph glyph-name="IJ" unicode="&#x132;" horiz-adv-x="771" 
d="M50 0v102h57v373h-57v103h284v-103h-58v-373h58v-102h-284zM399 -145v124h36q43 0 59 23t16 68v413h-64v95h289v-95h-56v-403q0 -78 -21.5 -127.5t-68 -73.5t-120.5 -24h-70z" />
    <glyph glyph-name="ij" unicode="&#x133;" horiz-adv-x="579" 
d="M16 0v88h52v225h-52v87h201v-312h51v-88h-252zM131 474q-39 0 -63 23t-24 60q0 38 24 60.5t63 22.5t62.5 -22.5t23.5 -60.5q1 -37 -23 -60t-63 -23zM274 -165v110h38q42 0 59 18.5t17 61.5v280h-74v95h223v-356q0 -73 -23 -119t-70 -68t-118 -22h-52zM447 475
q-39 0 -62.5 23t-23.5 60q0 38 23.5 60.5t62.5 22.5t63 -22.5t24 -60.5q0 -37 -24 -60t-63 -23z" />
    <glyph glyph-name="Jcircumflex" unicode="&#x134;" horiz-adv-x="387" 
d="M15 -145v124h36q43 0 59 23t16 68v413h-64v95h289v-95h-56v-403q0 -78 -21.5 -127.5t-68 -73.5t-120.5 -24h-70zM45 638l86 175h152l84 -175h-93l-68 114l-68 -114h-93z" />
    <glyph glyph-name="jcircumflex" unicode="&#x135;" horiz-adv-x="301" 
d="M-6 -165v110h38q42 0 59 18.5t17 62.5v279h-74v95h226v-354q0 -55 -13 -94.5t-39.5 -65.5t-67 -38.5t-94.5 -12.5h-52zM3 461l86 175h152l84 -175h-93l-68 114l-68 -114h-93z" />
    <glyph glyph-name="uni0136" unicode="&#x136;" horiz-adv-x="698" 
d="M47 0v102h57v373h-57v103h285v-103h-58v-167l170 167h-50v103h264v-103h-46l-179 -177l191 -196h46v-102h-278v102h44l-162 172v-172h58v-102h-285zM330 -301v49q31 3 46 21.5t15 57.5h-68v117h141v-96q0 -74 -29.5 -111.5t-104.5 -37.5z" />
    <glyph glyph-name="uni0137" unicode="&#x137;" horiz-adv-x="535" 
d="M16 0v88h52v412h-52v88h197v-375l130 100h-51v87h227v-87h-41l-120 -94l122 -131h43v-88h-140l-170 196v-108h49v-88h-246zM231 -301v49q31 3 46 21.5t15 57.5h-68v117h141v-96q0 -74 -29.5 -111.5t-104.5 -37.5z" />
    <glyph glyph-name="kgreenlandic" unicode="&#x138;" horiz-adv-x="628" 
d="M513 0l-236 194l131 105h-58v94h279v-94h-73l-137 -98l137 -106h84v-95h-127zM63 0v95h71v204h-72v94h219v-298h46v-95h-264z" />
    <glyph glyph-name="Lacute" unicode="&#x139;" horiz-adv-x="568" 
d="M47 0v102h57v381h-57v95h284v-95h-57v-381h158v153h113v-255h-498zM147 641l43 173h138l-97 -173h-84z" />
    <glyph glyph-name="lacute" unicode="&#x13a;" horiz-adv-x="276" 
d="M16 0v88h52v412h-52v88h198v-500h49v-88h-247zM99 652l43 173h138l-97 -173h-84z" />
    <glyph glyph-name="uni013B" unicode="&#x13b;" horiz-adv-x="568" 
d="M47 0v102h57v381h-57v95h284v-95h-57v-381h158v153h113v-255h-498zM234 -301v49q31 3 46 21.5t15 57.5h-68v117h141v-96q0 -74 -29.5 -111.5t-104.5 -37.5z" />
    <glyph glyph-name="uni013C" unicode="&#x13c;" horiz-adv-x="276" 
d="M16 0v88h52v412h-52v88h198v-500h49v-88h-247zM76 -301v49q31 3 46 21.5t15 57.5h-68v117h141v-96q0 -74 -29.5 -111.5t-104.5 -37.5z" />
    <glyph glyph-name="Lcaron" unicode="&#x13d;" horiz-adv-x="568" 
d="M47 0v102h57v381h-57v95h284v-95h-57v-381h158v153h113v-255h-498zM405 325v49q34 3 50.5 21.5t16.5 60.5h-68v122h141v-101q0 -71 -30.5 -111.5t-109.5 -40.5z" />
    <glyph glyph-name="lcaron" unicode="&#x13e;" horiz-adv-x="408" 
d="M16 0v88h52v412h-52v88h198v-500h49v-88h-247zM259 335v49q34 3 50.5 21.5t16.5 60.5h-68v122h141v-101q0 -71 -30.5 -111.5t-109.5 -40.5z" />
    <glyph glyph-name="Ldot" unicode="&#x13f;" horiz-adv-x="568" 
d="M47 0v102h57v381h-57v95h284v-95h-57v-381h158v153h113v-255h-498zM470 330q-29 0 -48 19t-19 45q0 27 19.5 45t47.5 18q29 0 48.5 -18t19.5 -45q0 -26 -19.5 -45t-48.5 -19z" />
    <glyph glyph-name="ldot" unicode="&#x140;" horiz-adv-x="340" 
d="M16 0v88h52v412h-52v88h198v-500h49v-88h-247zM312 265q-29 0 -48 19t-19 45q0 27 19.5 45t47.5 18q29 0 48.5 -18t19.5 -45q0 -26 -19.5 -45t-48.5 -19z" />
    <glyph glyph-name="Lslash" unicode="&#x141;" horiz-adv-x="568" 
d="M47 192v73l366 149v-71zM47 0v102h57v381h-57v95h284v-95h-57v-381h158v153h113v-255h-498z" />
    <glyph glyph-name="lslash" unicode="&#x142;" horiz-adv-x="275" 
d="M9 185v109l286 159v-113zM16 0v88h52v412h-52v88h198v-500h49v-88h-247z" />
    <glyph glyph-name="Nacute" unicode="&#x143;" horiz-adv-x="750" 
d="M48 0v102h58v373h-58v103h253l243 -366v263h-66v103h235v-103h-57v-475h-169l-272 407v-305h66v-102h-233zM348 641l43 173h138l-97 -173h-84z" />
    <glyph glyph-name="nacute" unicode="&#x144;" horiz-adv-x="542" 
d="M16 0v88h52v225h-52v87h190l3 -49l-37 -14q41 34 84 53.5t90 19.5q65 0 101 -39.5t36 -99.5v-183h51v-88h-242v88h42v159q0 30 -14 46.5t-39 16.5q-24 0 -48 -10.5t-47 -28.5l31 61v-244h43v-88h-244zM225 464l43 173h138l-97 -173h-84z" />
    <glyph glyph-name="uni0145" unicode="&#x145;" horiz-adv-x="750" 
d="M48 0v102h58v373h-58v103h253l243 -366v263h-66v103h235v-103h-57v-475h-169l-272 407v-305h66v-102h-233zM325 -301v49q31 3 46 21.5t15 57.5h-68v117h141v-96q0 -74 -29.5 -111.5t-104.5 -37.5z" />
    <glyph glyph-name="uni0146" unicode="&#x146;" horiz-adv-x="542" 
d="M16 0v88h52v225h-52v87h190l3 -49l-37 -14q41 34 84 53.5t90 19.5q65 0 101 -39.5t36 -99.5v-183h51v-88h-242v88h42v159q0 30 -14 46.5t-39 16.5q-24 0 -48 -10.5t-47 -28.5l31 61v-244h43v-88h-244zM215 -301v49q31 3 46 21.5t15 57.5h-68v117h141v-96
q0 -74 -29.5 -111.5t-104.5 -37.5z" />
    <glyph glyph-name="Ncaron" unicode="&#x147;" horiz-adv-x="750" 
d="M48 0v102h58v373h-58v103h253l243 -366v263h-66v103h235v-103h-57v-475h-169l-272 407v-305h66v-102h-233zM314 638l-78 174h98l60 -113l60 113h89l-69 -174h-160z" />
    <glyph glyph-name="ncaron" unicode="&#x148;" horiz-adv-x="542" 
d="M16 0v88h52v225h-52v87h190l3 -49l-37 -14q41 34 84 53.5t90 19.5q65 0 101 -39.5t36 -99.5v-183h51v-88h-242v88h42v159q0 30 -14 46.5t-39 16.5q-24 0 -48 -10.5t-47 -28.5l31 61v-244h43v-88h-244zM191 461l-78 174h98l60 -113l60 113h89l-69 -174h-160z" />
    <glyph glyph-name="napostrophe" unicode="&#x149;" horiz-adv-x="786" 
d="M101 427v49q34 3 50.5 21.5t16.5 60.5h-68v122h141v-101q0 -71 -30.5 -111.5t-109.5 -40.5zM260 0v88h52v225h-52v87h190l3 -49l-37 -14q41 34 84 53.5t90 19.5q65 0 101 -39.5t36 -99.5v-183h51v-88h-242v88h42v159q0 30 -14 46.5t-39 16.5q-24 0 -48 -10.5t-47 -28.5
l31 61v-244h43v-88h-244z" />
    <glyph glyph-name="Eng" unicode="&#x14a;" horiz-adv-x="742" 
d="M388 -190v95h36q28 0 53.5 8.5t42 27t16.5 47.5l-321 385v-271h65v-102h-233v102h58v373h-58v103h209l280 -351v248h-66v103h236v-103h-58v-474q0 -64 -20.5 -106t-61.5 -63.5t-106 -21.5h-72z" />
    <glyph glyph-name="eng" unicode="&#x14b;" horiz-adv-x="550" 
d="M248 -169l2 104q51 0 73 28.5t22 100.5v183q0 30 -15.5 46.5t-43.5 16.5q-16 0 -33.5 -5t-35.5 -14v-203h43v-88h-244v88h52v225h-51v87h189l3 -35q33 21 68.5 33t73.5 12q68 0 105.5 -39.5t37.5 -99.5v-202q0 -71 -20 -117.5t-54 -73t-78 -37t-94 -10.5z" />
    <glyph glyph-name="Omacron" unicode="&#x14c;" horiz-adv-x="729" 
d="M364 -10q-74 0 -134.5 21t-103.5 61t-66.5 94t-23.5 121q0 66 23.5 121t66.5 95.5t103.5 62.5t134.5 22t135 -22t104 -62.5t66 -95t23 -121.5q0 -66 -23 -120.5t-66 -94.5t-103.5 -61t-135.5 -21zM364 106q35 0 63 13.5t48 38t30.5 58.5t10.5 74q0 42 -10.5 75
t-30.5 57.5t-48 37t-63 12.5t-62.5 -13t-47.5 -37t-30.5 -57.5t-10.5 -74.5t10.5 -74.5t30.5 -58t47.5 -38t62.5 -13.5zM233 646v79h262v-79h-262z" />
    <glyph glyph-name="omacron" unicode="&#x14d;" horiz-adv-x="482" 
d="M241 -11q-67 0 -117 26.5t-78 74.5t-28 111t28 110t78 73.5t117 26.5t117 -26.5t78 -73.5t28 -110t-28 -111t-78 -74.5t-117 -26.5zM241 101q26 0 45.5 12t29.5 34.5t10 53.5t-10 53t-29.5 34t-45.5 12q-27 0 -45.5 -12t-29 -34t-10.5 -53t10.5 -53.5t29 -34.5t45.5 -12z
M110 469v79h262v-79h-262z" />
    <glyph glyph-name="Obreve" unicode="&#x14e;" horiz-adv-x="729" 
d="M364 -10q-74 0 -134.5 21t-103.5 61t-66.5 94t-23.5 121q0 66 23.5 121t66.5 95.5t103.5 62.5t134.5 22t135 -22t104 -62.5t66 -95t23 -121.5q0 -66 -23 -120.5t-66 -94.5t-103.5 -61t-135.5 -21zM364 106q35 0 63 13.5t48 38t30.5 58.5t10.5 74q0 42 -10.5 75
t-30.5 57.5t-48 37t-63 12.5t-62.5 -13t-47.5 -37t-30.5 -57.5t-10.5 -74.5t10.5 -74.5t30.5 -58t47.5 -38t62.5 -13.5zM364 646q-75 0 -115.5 36.5t-44.5 105.5h97q9 -62 63 -62q27 0 43.5 16t19.5 46h97q-6 -69 -46.5 -105.5t-113.5 -36.5z" />
    <glyph glyph-name="obreve" unicode="&#x14f;" horiz-adv-x="482" 
d="M241 -11q-67 0 -117 26.5t-78 74.5t-28 111t28 110t78 73.5t117 26.5t117 -26.5t78 -73.5t28 -110t-28 -111t-78 -74.5t-117 -26.5zM241 101q26 0 45.5 12t29.5 34.5t10 53.5t-10 53t-29.5 34t-45.5 12q-27 0 -45.5 -12t-29 -34t-10.5 -53t10.5 -53.5t29 -34.5t45.5 -12z
M241 469q-75 0 -115.5 36.5t-44.5 105.5h97q9 -62 63 -62q27 0 43.5 16t19.5 46h97q-6 -69 -46.5 -105.5t-113.5 -36.5z" />
    <glyph glyph-name="Ohungarumlaut" unicode="&#x150;" horiz-adv-x="729" 
d="M364 -10q-74 0 -134.5 21t-103.5 61t-66.5 94t-23.5 121q0 66 23.5 121t66.5 95.5t103.5 62.5t134.5 22t135 -22t104 -62.5t66 -95t23 -121.5q0 -66 -23 -120.5t-66 -94.5t-103.5 -61t-135.5 -21zM364 106q35 0 63 13.5t48 38t30.5 58.5t10.5 74q0 42 -10.5 75
t-30.5 57.5t-48 37t-63 12.5t-62.5 -13t-47.5 -37t-30.5 -57.5t-10.5 -74.5t10.5 -74.5t30.5 -58t47.5 -38t62.5 -13.5zM218 641l45 175h138l-98 -175h-85zM412 641l45 175h138l-98 -175h-85z" />
    <glyph glyph-name="ohungarumlaut" unicode="&#x151;" horiz-adv-x="482" 
d="M241 -11q-67 0 -117 26.5t-78 74.5t-28 111t28 110t78 73.5t117 26.5t117 -26.5t78 -73.5t28 -110t-28 -111t-78 -74.5t-117 -26.5zM241 101q26 0 45.5 12t29.5 34.5t10 53.5t-10 53t-29.5 34t-45.5 12q-27 0 -45.5 -12t-29 -34t-10.5 -53t10.5 -53.5t29 -34.5t45.5 -12z
M95 464l45 175h138l-98 -175h-85zM289 464l45 175h138l-98 -175h-85z" />
    <glyph glyph-name="OE" unicode="&#x152;" horiz-adv-x="1022" 
d="M381 0q-104 0 -182 35t-120.5 99.5t-42.5 152.5q0 89 42.5 154t120.5 101t182 36h584v-200h-105v97h-214v-133h90v57h84v-210h-83v57h-91v-143h219v108h105v-211h-589zM405 102h71v373h-71q-59 0 -102 -22t-66.5 -63t-23.5 -99q0 -57 23.5 -99.5t66.5 -66t102 -23.5z" />
    <glyph glyph-name="oe" unicode="&#x153;" horiz-adv-x="763" 
d="M236 -10q-65 0 -114 26.5t-76.5 74t-27.5 109.5q0 63 27.5 110t77 73.5t113.5 26.5q50 0 90 -17t68 -48q28 32 68 48.5t86 16.5q62 0 106 -26.5t67 -72.5t23 -107v-28h-276q6 -24 20.5 -41t37 -26t50.5 -9q33 0 65 11t55 31l44 -87q-33 -31 -80 -48t-102 -17
q-51 0 -93.5 16.5t-71.5 47.5q-28 -30 -68 -47t-89 -17zM240 100q26 0 45.5 12t29.5 35t10 53q0 31 -10 53.5t-29.5 34.5t-45.5 12t-45 -12t-29.5 -34.5t-10.5 -53.5q0 -30 10.5 -52.5t29.5 -34.5t45 -13zM465 239h143q0 24 -8 41t-23 25.5t-36 8.5q-22 0 -38.5 -8.5
t-25.5 -25.5t-12 -41z" />
    <glyph glyph-name="Racute" unicode="&#x154;" horiz-adv-x="705" 
d="M47 0v102h57v373h-57v103h349q70 0 124 -17.5t85 -54.5t31 -100q0 -39 -14 -69t-40 -50.5t-64 -32.5l95 -151h58v-103h-183l-133 234h-42v103h71q28 0 45 9.5t25.5 26t8.5 38.5q0 19 -8.5 33.5t-25.5 22.5t-41 8h-114v-373h54v-102h-281zM310 641l43 173h138l-97 -173
h-84z" />
    <glyph glyph-name="racute" unicode="&#x155;" horiz-adv-x="410" 
d="M20 0v88h52v225h-52v87h200v-123l-17 -1q16 53 36.5 81.5t44 40t46.5 11.5q21 0 40 -4.5t36 -13.5l-31 -120q-15 9 -36.5 15t-45.5 6q-25 0 -49 -15t-24 -51v-138h57v-88h-257zM177 464l43 173h138l-97 -173h-84z" />
    <glyph glyph-name="uni0156" unicode="&#x156;" horiz-adv-x="705" 
d="M47 0v102h57v373h-57v103h349q70 0 124 -17.5t85 -54.5t31 -100q0 -39 -14 -69t-40 -50.5t-64 -32.5l95 -151h58v-103h-183l-133 234h-42v103h71q28 0 45 9.5t25.5 26t8.5 38.5q0 19 -8.5 33.5t-25.5 22.5t-41 8h-114v-373h54v-102h-281zM298 -301v49q31 3 46 21.5
t15 57.5h-68v117h141v-96q0 -74 -29.5 -111.5t-104.5 -37.5z" />
    <glyph glyph-name="uni0157" unicode="&#x157;" horiz-adv-x="410" 
d="M20 0v88h52v225h-52v87h200v-123l-17 -1q16 53 36.5 81.5t44 40t46.5 11.5q21 0 40 -4.5t36 -13.5l-31 -120q-15 9 -36.5 15t-45.5 6q-25 0 -49 -15t-24 -51v-138h57v-88h-257zM81 -301v49q31 3 46 21.5t15 57.5h-68v117h141v-96q0 -74 -29.5 -111.5t-104.5 -37.5z" />
    <glyph glyph-name="Rcaron" unicode="&#x158;" horiz-adv-x="705" 
d="M47 0v102h57v373h-57v103h349q70 0 124 -17.5t85 -54.5t31 -100q0 -39 -14 -69t-40 -50.5t-64 -32.5l95 -151h58v-103h-183l-133 234h-42v103h71q28 0 45 9.5t25.5 26t8.5 38.5q0 19 -8.5 33.5t-25.5 22.5t-41 8h-114v-373h54v-102h-281zM276 638l-78 174h98l60 -113
l60 113h89l-69 -174h-160z" />
    <glyph glyph-name="rcaron" unicode="&#x159;" horiz-adv-x="410" 
d="M20 0v88h52v225h-52v87h200v-123l-17 -1q16 53 36.5 81.5t44 40t46.5 11.5q21 0 40 -4.5t36 -13.5l-31 -120q-15 9 -36.5 15t-45.5 6q-25 0 -49 -15t-24 -51v-138h57v-88h-257zM143 461l-78 174h98l60 -113l60 113h89l-69 -174h-160z" />
    <glyph glyph-name="Sacute" unicode="&#x15a;" horiz-adv-x="591" 
d="M351 -10q-42 0 -85 13t-76 38t-44 60h22v-101h-112v197h100q14 -33 38 -58t56 -39t71 -14q33 0 52.5 14.5t19.5 43.5q0 21 -9 34.5t-29.5 22t-53.5 15.5l-66 13q-93 20 -138.5 65t-45.5 122q0 51 24 90t67.5 60.5t101.5 21.5q68 0 117 -24t79 -69h-23v83h105v-169h-96
q-10 20 -28.5 39t-45.5 31.5t-65 12.5q-32 0 -50 -13.5t-18 -38.5q0 -28 25 -44t81 -27l35 -7q66 -12 108 -35.5t62.5 -61t20.5 -92.5q0 -57 -25 -97.5t-69.5 -63t-105.5 -22.5zM275 641l43 173h138l-97 -173h-84z" />
    <glyph glyph-name="sacute" unicode="&#x15b;" 
d="M267 -10q-36 0 -68 8.5t-55 25t-34 37.5l28 2v-63h-93v132h87l5 -54l-26 37q22 -21 52 -34t63 -13q25 0 39 9t14 25q0 20 -16 29.5t-52 17.5l-36 7q-70 16 -100.5 45.5t-30.5 82.5q0 59 41.5 92.5t108.5 33.5q35 0 64.5 -9t49 -23.5t25.5 -30.5l-31 -2v56h93v-126h-87
l-7 63l23 -39q-8 11 -23.5 19t-34.5 12.5t-37 4.5q-21 0 -35 -8.5t-14 -25.5q0 -16 13 -24t36 -14l42 -8q47 -10 78.5 -26.5t48 -43t16.5 -68.5t-19.5 -70t-53 -42.5t-74.5 -14.5zM190 464l43 173h138l-97 -173h-84z" />
    <glyph glyph-name="Scircumflex" unicode="&#x15c;" horiz-adv-x="591" 
d="M351 -10q-42 0 -85 13t-76 38t-44 60h22v-101h-112v197h100q14 -33 38 -58t56 -39t71 -14q33 0 52.5 14.5t19.5 43.5q0 21 -9 34.5t-29.5 22t-53.5 15.5l-66 13q-93 20 -138.5 65t-45.5 122q0 51 24 90t67.5 60.5t101.5 21.5q68 0 117 -24t79 -69h-23v83h105v-169h-96
q-10 20 -28.5 39t-45.5 31.5t-65 12.5q-32 0 -50 -13.5t-18 -38.5q0 -28 25 -44t81 -27l35 -7q66 -12 108 -35.5t62.5 -61t20.5 -92.5q0 -57 -25 -97.5t-69.5 -63t-105.5 -22.5zM156 638l86 175h152l84 -175h-93l-68 114l-68 -114h-93z" />
    <glyph glyph-name="scircumflex" unicode="&#x15d;" 
d="M267 -10q-36 0 -68 8.5t-55 25t-34 37.5l28 2v-63h-93v132h87l5 -54l-26 37q22 -21 52 -34t63 -13q25 0 39 9t14 25q0 20 -16 29.5t-52 17.5l-36 7q-70 16 -100.5 45.5t-30.5 82.5q0 59 41.5 92.5t108.5 33.5q35 0 64.5 -9t49 -23.5t25.5 -30.5l-31 -2v56h93v-126h-87
l-7 63l23 -39q-8 11 -23.5 19t-34.5 12.5t-37 4.5q-21 0 -35 -8.5t-14 -25.5q0 -16 13 -24t36 -14l42 -8q47 -10 78.5 -26.5t48 -43t16.5 -68.5t-19.5 -70t-53 -42.5t-74.5 -14.5zM71 461l86 175h152l84 -175h-93l-68 114l-68 -114h-93z" />
    <glyph glyph-name="Scedilla" unicode="&#x15e;" horiz-adv-x="591" 
d="M351 -10q-42 0 -85 13t-76 38t-44 60h22v-101h-112v197h100q14 -33 38 -58t56 -39t71 -14q33 0 52.5 14.5t19.5 43.5q0 21 -9 34.5t-29.5 22t-53.5 15.5l-66 13q-93 20 -138.5 65t-45.5 122q0 51 24 90t67.5 60.5t101.5 21.5q68 0 117 -24t79 -69h-23v83h105v-169h-96
q-10 20 -28.5 39t-45.5 31.5t-65 12.5q-32 0 -50 -13.5t-18 -38.5q0 -28 25 -44t81 -27l35 -7q66 -12 108 -35.5t62.5 -61t20.5 -92.5q0 -57 -25 -97.5t-69.5 -63t-105.5 -22.5zM310 -203q-49 0 -89 25v39q14 -5 29 -9t28 -4q15 0 25 7t10 24q0 16 -13.5 24t-44.5 9l35 88
h53l-15 -57q38 -6 56 -26.5t18 -46.5q0 -38 -28 -55.5t-64 -17.5z" />
    <glyph glyph-name="scedilla" unicode="&#x15f;" 
d="M267 -10q-36 0 -68 8.5t-55 25t-34 37.5l28 2v-63h-93v132h87l5 -54l-26 37q22 -21 52 -34t63 -13q25 0 39 9t14 25q0 20 -16 29.5t-52 17.5l-36 7q-70 16 -100.5 45.5t-30.5 82.5q0 59 41.5 92.5t108.5 33.5q35 0 64.5 -9t49 -23.5t25.5 -30.5l-31 -2v56h93v-126h-87
l-7 63l23 -39q-8 11 -23.5 19t-34.5 12.5t-37 4.5q-21 0 -35 -8.5t-14 -25.5q0 -16 13 -24t36 -14l42 -8q47 -10 78.5 -26.5t48 -43t16.5 -68.5t-19.5 -70t-53 -42.5t-74.5 -14.5zM240 -203q-49 0 -89 25v39q14 -5 29 -9t28 -4q15 0 25 7t10 24q0 16 -13.5 24t-44.5 9l35 88
h53l-15 -57q38 -6 56 -26.5t18 -46.5q0 -38 -28 -55.5t-64 -17.5z" />
    <glyph glyph-name="Scaron" unicode="&#x160;" horiz-adv-x="591" 
d="M351 -10q-42 0 -85 13t-76 38t-44 60h22v-101h-112v197h100q14 -33 38 -58t56 -39t71 -14q33 0 52.5 14.5t19.5 43.5q0 21 -9 34.5t-29.5 22t-53.5 15.5l-66 13q-93 20 -138.5 65t-45.5 122q0 51 24 90t67.5 60.5t101.5 21.5q68 0 117 -24t79 -69h-23v83h105v-169h-96
q-10 20 -28.5 39t-45.5 31.5t-65 12.5q-32 0 -50 -13.5t-18 -38.5q0 -28 25 -44t81 -27l35 -7q66 -12 108 -35.5t62.5 -61t20.5 -92.5q0 -57 -25 -97.5t-69.5 -63t-105.5 -22.5zM241 638l-78 174h98l60 -113l60 113h89l-69 -174h-160z" />
    <glyph glyph-name="scaron" unicode="&#x161;" 
d="M267 -10q-36 0 -68 8.5t-55 25t-34 37.5l28 2v-63h-93v132h87l5 -54l-26 37q22 -21 52 -34t63 -13q25 0 39 9t14 25q0 20 -16 29.5t-52 17.5l-36 7q-70 16 -100.5 45.5t-30.5 82.5q0 59 41.5 92.5t108.5 33.5q35 0 64.5 -9t49 -23.5t25.5 -30.5l-31 -2v56h93v-126h-87
l-7 63l23 -39q-8 11 -23.5 19t-34.5 12.5t-37 4.5q-21 0 -35 -8.5t-14 -25.5q0 -16 13 -24t36 -14l42 -8q47 -10 78.5 -26.5t48 -43t16.5 -68.5t-19.5 -70t-53 -42.5t-74.5 -14.5zM156 461l-78 174h98l60 -113l60 113h89l-69 -174h-160z" />
    <glyph glyph-name="uni0162" unicode="&#x162;" horiz-adv-x="642" 
d="M172 0v102h65v376h-102v-114h-109v214h590v-214h-109v114h-101v-376h65v-102h-299zM316 -203q-49 0 -89 25v39q14 -5 29 -9t28 -4q15 0 25 7t10 24q0 16 -13.5 24t-44.5 9l35 88h53l-15 -57q38 -6 56 -26.5t18 -46.5q0 -38 -28 -55.5t-64 -17.5z" />
    <glyph glyph-name="uni0163" unicode="&#x163;" horiz-adv-x="328" 
d="M195 0q-62 0 -95.5 28.5t-33.5 90.5v194h-50v87h49v130l149 25v-155h90v-87h-90v-169q0 -29 10.5 -41t36.5 -12h46v-91h-112zM198 -203q-49 0 -89 25v39q14 -5 29 -9t28 -4q15 0 25 7t10 24q0 16 -13.5 24t-44.5 9l35 88h53l-15 -57q38 -6 56 -26.5t18 -46.5
q0 -38 -28 -55.5t-64 -17.5z" />
    <glyph glyph-name="Tcaron" unicode="&#x164;" horiz-adv-x="642" 
d="M172 0v102h65v376h-102v-114h-109v214h590v-214h-109v114h-101v-376h65v-102h-299zM245 638l-78 174h98l60 -113l60 113h89l-69 -174h-160z" />
    <glyph glyph-name="tcaron" unicode="&#x165;" horiz-adv-x="402" 
d="M195 0q-62 0 -95.5 28.5t-33.5 90.5v194h-50v87h49v130l149 25v-155h90v-87h-90v-169q0 -29 10.5 -41t36.5 -12h46v-91h-112zM251 437v49q34 3 50.5 21.5t16.5 60.5h-68v122h141v-101q0 -71 -30.5 -111.5t-109.5 -40.5z" />
    <glyph glyph-name="Tbar" unicode="&#x166;" horiz-adv-x="642" 
d="M172 0v102h65v376h-102v-114h-109v214h590v-214h-109v114h-101v-376h65v-102h-299zM190 241v79h262v-79h-262z" />
    <glyph glyph-name="tbar" unicode="&#x167;" horiz-adv-x="328" 
d="M16 175v80h278v-80h-278zM195 0q-62 0 -95.5 28.5t-33.5 90.5v194h-50v87h49v130l149 25v-155h90v-87h-90v-169q0 -29 10.5 -41t36.5 -12h46v-91h-112z" />
    <glyph glyph-name="Utilde" unicode="&#x168;" horiz-adv-x="693" 
d="M352 -11q-86 0 -144.5 25.5t-88.5 75t-30 121.5v264h-57v103h288v-103h-62v-265q0 -37 12.5 -63t36.5 -39.5t59 -13.5q36 0 61 13.5t38 39.5t13 63v265h-48v103h233v-103h-57v-263q0 -73 -29 -122.5t-85.5 -75t-139.5 -25.5zM433 648q-28 0 -55.5 11.5t-51.5 23t-42 11.5
q-36 0 -40 -41h-70q7 79 39.5 111.5t76.5 32.5q27 0 54.5 -11t51.5 -23t41 -12q18 0 28.5 10t13.5 31h69q-6 -77 -38 -110.5t-77 -33.5z" />
    <glyph glyph-name="utilde" unicode="&#x169;" horiz-adv-x="540" 
d="M197 -10q-46 0 -76.5 19t-45.5 51t-15 70v183h-50v87h199v-248q0 -29 13.5 -45.5t39.5 -16.5q25 0 49.5 12t45.5 33l-30 -64v242h-44v87h192v-312h52v-88h-188l-5 52l37 14q-39 -35 -82 -55.5t-92 -20.5zM327 471q-28 0 -55.5 11.5t-51.5 23t-42 11.5q-36 0 -40 -41h-70
q7 79 39.5 111.5t76.5 32.5q27 0 54.5 -11t51.5 -23t41 -12q18 0 28.5 10t13.5 31h69q-6 -77 -38 -110.5t-77 -33.5z" />
    <glyph glyph-name="Umacron" unicode="&#x16a;" horiz-adv-x="693" 
d="M352 -11q-86 0 -144.5 25.5t-88.5 75t-30 121.5v264h-57v103h288v-103h-62v-265q0 -37 12.5 -63t36.5 -39.5t59 -13.5q36 0 61 13.5t38 39.5t13 63v265h-48v103h233v-103h-57v-263q0 -73 -29 -122.5t-85.5 -75t-139.5 -25.5zM230 646v79h262v-79h-262z" />
    <glyph glyph-name="umacron" unicode="&#x16b;" horiz-adv-x="540" 
d="M197 -10q-46 0 -76.5 19t-45.5 51t-15 70v183h-50v87h199v-248q0 -29 13.5 -45.5t39.5 -16.5q25 0 49.5 12t45.5 33l-30 -64v242h-44v87h192v-312h52v-88h-188l-5 52l37 14q-39 -35 -82 -55.5t-92 -20.5zM124 469v79h262v-79h-262z" />
    <glyph glyph-name="Ubreve" unicode="&#x16c;" horiz-adv-x="693" 
d="M352 -11q-86 0 -144.5 25.5t-88.5 75t-30 121.5v264h-57v103h288v-103h-62v-265q0 -37 12.5 -63t36.5 -39.5t59 -13.5q36 0 61 13.5t38 39.5t13 63v265h-48v103h233v-103h-57v-263q0 -73 -29 -122.5t-85.5 -75t-139.5 -25.5zM361 646q-75 0 -115.5 36.5t-44.5 105.5h97
q9 -62 63 -62q27 0 43.5 16t19.5 46h97q-6 -69 -46.5 -105.5t-113.5 -36.5z" />
    <glyph glyph-name="ubreve" unicode="&#x16d;" horiz-adv-x="540" 
d="M197 -10q-46 0 -76.5 19t-45.5 51t-15 70v183h-50v87h199v-248q0 -29 13.5 -45.5t39.5 -16.5q25 0 49.5 12t45.5 33l-30 -64v242h-44v87h192v-312h52v-88h-188l-5 52l37 14q-39 -35 -82 -55.5t-92 -20.5zM255 469q-75 0 -115.5 36.5t-44.5 105.5h97q9 -62 63 -62
q27 0 43.5 16t19.5 46h97q-6 -69 -46.5 -105.5t-113.5 -36.5z" />
    <glyph glyph-name="Uring" unicode="&#x16e;" horiz-adv-x="693" 
d="M352 -11q-86 0 -144.5 25.5t-88.5 75t-30 121.5v264h-57v103h288v-103h-62v-265q0 -37 12.5 -63t36.5 -39.5t59 -13.5q36 0 61 13.5t38 39.5t13 63v265h-48v103h233v-103h-57v-263q0 -73 -29 -122.5t-85.5 -75t-139.5 -25.5zM361 632q-44 0 -69 24t-25 65q0 42 25 66
t69 24t69 -24t25 -66q0 -41 -25 -65.5t-69 -23.5zM361 677q21 0 32.5 11.5t11.5 32.5q0 22 -11.5 34t-32.5 12t-32.5 -12t-11.5 -34q0 -21 11.5 -32.5t32.5 -11.5z" />
    <glyph glyph-name="uring" unicode="&#x16f;" horiz-adv-x="540" 
d="M197 -10q-46 0 -76.5 19t-45.5 51t-15 70v183h-50v87h199v-248q0 -29 13.5 -45.5t39.5 -16.5q25 0 49.5 12t45.5 33l-30 -64v242h-44v87h192v-312h52v-88h-188l-5 52l37 14q-39 -35 -82 -55.5t-92 -20.5zM255 455q-44 0 -69 24t-25 65q0 42 25 66t69 24t69 -24t25 -66
q0 -41 -25 -65.5t-69 -23.5zM255 500q21 0 32.5 11.5t11.5 32.5q0 22 -11.5 34t-32.5 12t-32.5 -12t-11.5 -34q0 -21 11.5 -32.5t32.5 -11.5z" />
    <glyph glyph-name="Uhungarumlaut" unicode="&#x170;" horiz-adv-x="693" 
d="M352 -11q-86 0 -144.5 25.5t-88.5 75t-30 121.5v264h-57v103h288v-103h-62v-265q0 -37 12.5 -63t36.5 -39.5t59 -13.5q36 0 61 13.5t38 39.5t13 63v265h-48v103h233v-103h-57v-263q0 -73 -29 -122.5t-85.5 -75t-139.5 -25.5zM215 641l45 175h138l-98 -175h-85zM409 641
l45 175h138l-98 -175h-85z" />
    <glyph glyph-name="uhungarumlaut" unicode="&#x171;" horiz-adv-x="540" 
d="M197 -10q-46 0 -76.5 19t-45.5 51t-15 70v183h-50v87h199v-248q0 -29 13.5 -45.5t39.5 -16.5q25 0 49.5 12t45.5 33l-30 -64v242h-44v87h192v-312h52v-88h-188l-5 52l37 14q-39 -35 -82 -55.5t-92 -20.5zM109 464l45 175h138l-98 -175h-85zM303 464l45 175h138l-98 -175
h-85z" />
    <glyph glyph-name="Uogonek" unicode="&#x172;" horiz-adv-x="693" 
d="M352 -11q-86 0 -144.5 25.5t-88.5 75t-30 121.5v264h-57v103h288v-103h-62v-265q0 -37 12.5 -63t36.5 -39.5t59 -13.5q36 0 61 13.5t38 39.5t13 63v265h-48v103h233v-103h-57v-263q0 -73 -29 -122.5t-85.5 -75t-139.5 -25.5zM357 -193q-43 0 -67 23.5t-24 58.5
q0 29 17 57t49 54h52q-20 -23 -31.5 -42t-11.5 -38q0 -18 14 -30t38 -12q21 0 42 8v-61q-20 -9 -38.5 -13.5t-39.5 -4.5z" />
    <glyph glyph-name="uogonek" unicode="&#x173;" horiz-adv-x="540" 
d="M197 -10q-46 0 -76.5 19t-45.5 51t-15 70v183h-50v87h199v-248q0 -29 13.5 -45.5t39.5 -16.5q25 0 49.5 12t45.5 33l-30 -64v242h-44v87h192v-312h52v-88h-188l-5 52l37 14q-39 -35 -82 -55.5t-92 -20.5zM470 -183q-43 0 -67 23.5t-24 58.5q0 29 17 57t49 54h52
q-20 -23 -31.5 -42t-11.5 -38q0 -18 14 -30t38 -12q21 0 42 8v-61q-20 -9 -38.5 -13.5t-39.5 -4.5z" />
    <glyph glyph-name="Wcircumflex" unicode="&#x174;" horiz-adv-x="913" 
d="M232 0l-163 475h-52v103h254v-103h-55l76 -251l120 336h104l117 -336l82 251h-62v103h244v-103h-53l-155 -475h-107l-122 332l-122 -332h-106zM303 621l86 175h152l84 -175h-93l-68 114l-68 -114h-93z" />
    <glyph glyph-name="wcircumflex" unicode="&#x175;" horiz-adv-x="711" 
d="M149 0l-111 313h-36v87h205v-87h-36l62 -192l63 192h-37v87h195v-87h-37l64 -192l59 192h-37v87h205v-87h-37l-115 -313h-131l-71 202l-72 -202h-133zM196 461l86 175h152l84 -175h-93l-68 114l-68 -114h-93z" />
    <glyph glyph-name="Ycircumflex" unicode="&#x176;" horiz-adv-x="673" 
d="M190 0v102h66v114l-188 259h-57v103h304v-103h-62l106 -158l105 158h-63v103h261v-103h-58l-179 -259v-114h66v-102h-301zM197 638l86 175h152l84 -175h-93l-68 114l-68 -114h-93z" />
    <glyph glyph-name="ycircumflex" unicode="&#x177;" horiz-adv-x="523" 
d="M89 -169v108h36q24 0 40 4.5t28 15.5t22 32l17 35h-40l-149 287h-41v87h241v-87h-48l83 -178l78 178h-50v87h217v-87h-39l-167 -340q-25 -49 -45.5 -80.5t-51 -46.5t-85.5 -15h-46zM114 461l86 175h152l84 -175h-93l-68 114l-68 -114h-93z" />
    <glyph glyph-name="Ydieresis" unicode="&#x178;" horiz-adv-x="673" 
d="M190 0v102h66v114l-188 259h-57v103h304v-103h-62l106 -158l105 158h-63v103h261v-103h-58l-179 -259v-114h66v-102h-301zM235 655q-32 0 -55.5 19t-23.5 56t23.5 56.5t55.5 19.5t55.5 -19.5t23.5 -56.5t-23.5 -56t-55.5 -19zM481 655q-32 0 -55 19t-23 56t23 56.5
t55 19.5t55.5 -19.5t23.5 -56.5t-23.5 -56t-55.5 -19z" />
    <glyph glyph-name="Zacute" unicode="&#x179;" horiz-adv-x="592" 
d="M40 0v81l278 397h-162v-111h-109v211h499v-80l-280 -399h177v124h112v-223h-515zM262 641l43 173h138l-97 -173h-84z" />
    <glyph glyph-name="zacute" unicode="&#x17a;" horiz-adv-x="455" 
d="M31 0v73l215 244h-125v-74h-89v157h386v-73l-218 -245h137v85h89v-167h-395zM192 464l43 173h138l-97 -173h-84z" />
    <glyph glyph-name="Zdotaccent" unicode="&#x17b;" horiz-adv-x="592" 
d="M40 0v81l278 397h-162v-111h-109v211h499v-80l-280 -399h177v124h112v-223h-515zM305 655q-37 0 -60 22t-23 58q0 35 23 57t60 22q38 0 60 -21.5t22 -57.5q1 -35 -21.5 -57.5t-60.5 -22.5z" />
    <glyph glyph-name="zdotaccent" unicode="&#x17c;" horiz-adv-x="455" 
d="M31 0v73l215 244h-125v-74h-89v157h386v-73l-218 -245h137v85h89v-167h-395zM234 478q-37 0 -60 22t-23 58q0 35 23 57t60 22q38 0 60 -21.5t22 -57.5q1 -35 -21.5 -57.5t-60.5 -22.5z" />
    <glyph glyph-name="Zcaron" unicode="&#x17d;" horiz-adv-x="592" 
d="M40 0v81l278 397h-162v-111h-109v211h499v-80l-280 -399h177v124h112v-223h-515zM228 638l-78 174h98l60 -113l60 113h89l-69 -174h-160z" />
    <glyph glyph-name="zcaron" unicode="&#x17e;" horiz-adv-x="455" 
d="M31 0v73l215 244h-125v-74h-89v157h386v-73l-218 -245h137v85h89v-167h-395zM158 461l-78 174h98l60 -113l60 113h89l-69 -174h-160z" />
    <glyph glyph-name="uni018F" unicode="&#x18f;" horiz-adv-x="672" 
d="M329 -10q-96 0 -161 37t-97.5 103t-32.5 151v40h486l-1 -88h-309q0 -39 14.5 -68t41 -44t64.5 -15q42 0 70 19.5t41.5 56.5t13.5 88q0 57 -21.5 95t-59.5 57.5t-89 19.5q-54 0 -102 -18.5t-88 -45.5l-56 114q34 26 77 47t94.5 34t108.5 13q72 0 130 -20.5t98.5 -60
t62 -94.5t21.5 -123q0 -66 -21.5 -120.5t-61.5 -94.5t-97 -61.5t-126 -21.5z" />
    <glyph glyph-name="florin" unicode="&#x192;" horiz-adv-x="511" 
d="M79 -167q-36 0 -66.5 7.5t-52.5 17.5l14 92q16 -9 32.5 -13.5t35.5 -4.5q40 0 61.5 20.5t28.5 62.5l62 418q11 72 60 113.5t139 41.5q36 0 65.5 -7t52.5 -18l-14 -92q-16 9 -32 13.5t-35 4.5q-40 0 -62 -20t-30 -63l-61 -418q-10 -73 -59.5 -114t-138.5 -41zM97 259
l11 84h349l-11 -84h-349z" />
    <glyph glyph-name="Ohorn" unicode="&#x1a0;" horiz-adv-x="729" 
d="M364 -10q-74 0 -134.5 21t-103.5 61t-66.5 94t-23.5 121q0 66 23 121.5t66 95.5t103.5 62t133.5 22q32 0 59 -4t53 -4q31 0 50.5 17t21.5 53h105q-5 -71 -48 -108t-118 -37l10 62q62 -21 106 -61.5t67.5 -95.5t23.5 -123q0 -66 -23 -120.5t-66 -94.5t-103.5 -61
t-135.5 -21zM364 106q35 0 63 13.5t48 38t30.5 58.5t10.5 74q0 42 -10.5 75t-30.5 57.5t-48 37t-63 12.5t-62.5 -13t-47.5 -37t-30.5 -57t-10.5 -75q0 -41 10.5 -74.5t30.5 -58t47.5 -38t62.5 -13.5z" />
    <glyph glyph-name="ohorn" unicode="&#x1a1;" horiz-adv-x="482" 
d="M241 -11q-67 0 -117 26.5t-78 74.5t-28 111t28 110t78 73.5t117 26.5t117 -26.5t78 -73.5t28 -110t-28 -111t-78 -74.5t-117 -26.5zM241 101q26 0 45.5 12t29.5 34.5t10 53.5t-10 53t-29.5 34t-45.5 12q-27 0 -45.5 -12t-29 -34t-10.5 -53t10.5 -53.5t29 -34.5t45.5 -12z
M254 325v75h19q31 0 50.5 17.5t21.5 53.5h105q-5 -71 -48 -108.5t-119 -37.5h-29z" />
    <glyph glyph-name="Uhorn" unicode="&#x1af;" horiz-adv-x="693" 
d="M352 -11q-86 0 -144.5 25.5t-88.5 75t-30 121.5v264h-57v103h288v-103h-62v-265q0 -37 12.5 -63t36.5 -39.5t59 -13.5q36 0 61 13.5t38 39.5t13 63v265h-48v103h176v-366q0 -73 -29 -122.5t-85.5 -75t-139.5 -25.5zM507 503v75h20q31 0 50 17.5t22 54.5h105
q-5 -72 -48 -109.5t-119 -37.5h-30z" />
    <glyph glyph-name="uhorn" unicode="&#x1b0;" horiz-adv-x="540" 
d="M197 -10q-46 0 -76.5 19t-45.5 51t-15 70v183h-50v87h199v-248q0 -29 13.5 -45.5t39.5 -16.5q25 0 49.5 12t45.5 33l-30 -64v242h-44v87h192v-312h52v-88h-188l-5 52l37 14q-39 -35 -82 -55.5t-92 -20.5zM367 325v75h19q31 0 50.5 17.5t21.5 53.5h105q-5 -71 -48 -108.5
t-119 -37.5h-29z" />
    <glyph glyph-name="uni01C4" unicode="&#x1c4;" horiz-adv-x="1324" 
d="M47 0v102h58v373h-58v103h343q77 0 134 -22.5t95.5 -61.5t57.5 -91t19 -112q0 -65 -19.5 -118.5t-57 -92t-95 -59.5t-133.5 -21h-344zM274 102h86q43 0 73 13t49.5 37.5t28.5 59.5t9 79q0 42 -9 76t-28 58t-49.5 37t-72.5 13h-87v-373zM772 0v81l278 397h-162v-111h-109
v211h499v-80l-280 -399h177v124h112v-223h-515zM960 638l-78 174h98l60 -113l60 113h89l-69 -174h-160z" />
    <glyph glyph-name="uni01C5" unicode="&#x1c5;" horiz-adv-x="1187" 
d="M47 0v102h58v373h-58v103h343q77 0 134 -22.5t95.5 -61.5t57.5 -91t19 -112q0 -65 -19.5 -118.5t-57 -92t-95 -59.5t-133.5 -21h-344zM274 102h86q43 0 73 13t49.5 37.5t28.5 59.5t9 79q0 42 -9 76t-28 58t-49.5 37t-72.5 13h-87v-373zM763 0v73l215 244h-125v-74h-89
v157h386v-73l-218 -245h137v85h89v-167h-395zM890 461l-78 174h98l60 -113l60 113h89l-69 -174h-160z" />
    <glyph glyph-name="uni01C6" unicode="&#x1c6;" horiz-adv-x="985" 
d="M205 -10q-55 0 -97 26t-65.5 74t-23.5 112q0 63 23.5 110t65.5 72.5t95 25.5q50 0 85.5 -18.5t57.5 -49.5l-25 -9v167h-63v88h211v-500h49v-88h-186l-4 48l39 13q-32 -33 -71 -52t-91 -19zM259 100q27 0 48 10.5t40 29.5l-26 -50v215l23 -50q-17 22 -38.5 33.5
t-47.5 11.5q-25 0 -44.5 -11.5t-30.5 -34t-11 -56.5q0 -29 11.5 -51t30.5 -34.5t45 -12.5zM561 0v73l215 244h-125v-74h-89v157h386v-73l-218 -245h137v85h89v-167h-395zM688 461l-78 174h98l60 -113l60 113h89l-69 -174h-160z" />
    <glyph glyph-name="uni01C7" unicode="&#x1c7;" horiz-adv-x="954" 
d="M47 0v102h57v381h-57v95h284v-95h-57v-381h158v153h113v-255h-498zM583 -145v124h36q43 0 59 23t16 68v413h-64v95h289v-95h-56v-403q0 -78 -21.5 -127.5t-68 -73.5t-120.5 -24h-70z" />
    <glyph glyph-name="uni01C8" unicode="&#x1c8;" horiz-adv-x="866" 
d="M47 0v102h57v381h-57v95h284v-95h-57v-381h158v153h113v-255h-498zM562 -165v110h38q42 0 59 18.5t17 61.5v280h-74v95h223v-356q0 -73 -23 -119t-70 -68t-118 -22h-52zM735 475q-39 0 -62.5 23t-23.5 60q0 38 23.5 60.5t62.5 22.5t63 -22.5t24 -60.5q0 -37 -24 -60
t-63 -23z" />
    <glyph glyph-name="uni01C9" unicode="&#x1c9;" horiz-adv-x="575" 
d="M16 0v88h52v412h-52v88h198v-500h49v-88h-247zM270 -165v110h38q42 0 59 18.5t17 61.5v280h-74v95h223v-356q0 -73 -23 -119t-70 -68t-118 -22h-52zM443 475q-39 0 -62.5 23t-23.5 60q0 38 23.5 60.5t62.5 22.5t63 -22.5t24 -60.5q0 -37 -24 -60t-63 -23z" />
    <glyph glyph-name="uni01CA" unicode="&#x1ca;" horiz-adv-x="1136" 
d="M48 0v102h58v373h-58v103h253l243 -366v263h-66v103h235v-103h-57v-475h-169l-272 407v-305h66v-102h-233zM765 -145v124h36q43 0 59 23t16 68v413h-64v95h289v-95h-56v-403q0 -78 -21.5 -127.5t-68 -73.5t-120.5 -24h-70z" />
    <glyph glyph-name="uni01CB" unicode="&#x1cb;" horiz-adv-x="1048" 
d="M48 0v102h58v373h-58v103h253l243 -366v263h-66v103h235v-103h-57v-475h-169l-272 407v-305h66v-102h-233zM744 -165v110h38q42 0 59 18.5t17 61.5v280h-74v95h223v-356q0 -73 -23 -119t-70 -68t-118 -22h-52zM917 475q-39 0 -62.5 23t-23.5 60q0 38 23.5 60.5t62.5 22.5
t63 -22.5t24 -60.5q0 -37 -24 -60t-63 -23z" />
    <glyph glyph-name="uni01CC" unicode="&#x1cc;" horiz-adv-x="841" 
d="M16 0v88h52v225h-52v87h190l3 -49l-37 -14q41 34 84 53.5t90 19.5q65 0 101 -39.5t36 -99.5v-183h51v-88h-242v88h42v159q0 30 -14 46.5t-39 16.5q-24 0 -48 -10.5t-47 -28.5l31 61v-244h43v-88h-244zM536 -165v110h38q42 0 59 18.5t17 61.5v280h-74v95h223v-356
q0 -73 -23 -119t-70 -68t-118 -22h-52zM709 475q-39 0 -62.5 23t-23.5 60q0 38 23.5 60.5t62.5 22.5t63 -22.5t24 -60.5q0 -37 -24 -60t-63 -23z" />
    <glyph glyph-name="uni01CD" unicode="&#x1cd;" horiz-adv-x="730" 
d="M22 0v102h59l141 373h-56v103h398v-103h-57l143 -373h58v-102h-294v102h64l-33 102h-179l-33 -102h56v-102h-267zM296 300h120l-55 175h-6zM289 638l-78 174h98l60 -113l60 113h89l-69 -174h-160z" />
    <glyph glyph-name="uni01CE" unicode="&#x1ce;" horiz-adv-x="483" 
d="M164 -10q-61 0 -97 32t-36 85q0 45 22.5 72.5t59 39.5t77.5 12q34 0 63 -6t48 -15l-23 -5v33q0 38 -19.5 56.5t-56.5 18.5q-28 0 -59.5 -8t-72.5 -26l-33 85q50 23 100 34.5t101 11.5q59 0 100.5 -19.5t63 -56t21.5 -87.5v-159h48v-88h-170l-20 62h36q-33 -36 -70 -54
t-83 -18zM215 67q21 0 42 10t40 33l-19 -37v97l19 -21q-14 8 -32.5 13t-40.5 5q-24 0 -42.5 -11.5t-18.5 -39.5q0 -23 13.5 -36t38.5 -13zM162 461l-78 174h98l60 -113l60 113h89l-69 -174h-160z" />
    <glyph glyph-name="uni01CF" unicode="&#x1cf;" horiz-adv-x="384" 
d="M50 0v102h57v373h-57v103h284v-103h-58v-373h58v-102h-284zM116 638l-78 174h98l60 -113l60 113h89l-69 -174h-160z" />
    <glyph glyph-name="uni01D0" unicode="&#x1d0;" horiz-adv-x="289" 
d="M16 0v94h61v211h-56v95h202v-306h54v-94h-261zM72 460l-78 174h98l60 -113l60 113h89l-69 -174h-160z" />
    <glyph glyph-name="uni01D1" unicode="&#x1d1;" horiz-adv-x="729" 
d="M364 -10q-74 0 -134.5 21t-103.5 61t-66.5 94t-23.5 121q0 66 23.5 121t66.5 95.5t103.5 62.5t134.5 22t135 -22t104 -62.5t66 -95t23 -121.5q0 -66 -23 -120.5t-66 -94.5t-103.5 -61t-135.5 -21zM364 106q35 0 63 13.5t48 38t30.5 58.5t10.5 74q0 42 -10.5 75
t-30.5 57.5t-48 37t-63 12.5t-62.5 -13t-47.5 -37t-30.5 -57.5t-10.5 -74.5t10.5 -74.5t30.5 -58t47.5 -38t62.5 -13.5zM288 638l-78 174h98l60 -113l60 113h89l-69 -174h-160z" />
    <glyph glyph-name="uni01D2" unicode="&#x1d2;" horiz-adv-x="482" 
d="M241 -11q-67 0 -117 26.5t-78 74.5t-28 111t28 110t78 73.5t117 26.5t117 -26.5t78 -73.5t28 -110t-28 -111t-78 -74.5t-117 -26.5zM241 101q26 0 45.5 12t29.5 34.5t10 53.5t-10 53t-29.5 34t-45.5 12q-27 0 -45.5 -12t-29 -34t-10.5 -53t10.5 -53.5t29 -34.5t45.5 -12z
M165 461l-78 174h98l60 -113l60 113h89l-69 -174h-160z" />
    <glyph glyph-name="uni01D3" unicode="&#x1d3;" horiz-adv-x="693" 
d="M352 -11q-86 0 -144.5 25.5t-88.5 75t-30 121.5v264h-57v103h288v-103h-62v-265q0 -37 12.5 -63t36.5 -39.5t59 -13.5q36 0 61 13.5t38 39.5t13 63v265h-48v103h233v-103h-57v-263q0 -73 -29 -122.5t-85.5 -75t-139.5 -25.5zM285 638l-78 174h98l60 -113l60 113h89
l-69 -174h-160z" />
    <glyph glyph-name="uni01D4" unicode="&#x1d4;" horiz-adv-x="540" 
d="M197 -10q-46 0 -76.5 19t-45.5 51t-15 70v183h-50v87h199v-248q0 -29 13.5 -45.5t39.5 -16.5q25 0 49.5 12t45.5 33l-30 -64v242h-44v87h192v-312h52v-88h-188l-5 52l37 14q-39 -35 -82 -55.5t-92 -20.5zM179 461l-78 174h98l60 -113l60 113h89l-69 -174h-160z" />
    <glyph glyph-name="uni01E2" unicode="&#x1e2;" horiz-adv-x="986" 
d="M13 0v102h60l208 373h-56v103h681l14 -203h-105l-9 100h-216l8 -133h94l-5 58h84l17 -212h-84l-5 58h-96l9 -143h223l-8 109h105l14 -212h-560v102h57l-6 99h-159l-50 -99h54v-102h-269zM323 296h109l-10 179h-6zM415 646v79h262v-79h-262z" />
    <glyph glyph-name="uni01E3" unicode="&#x1e3;" horiz-adv-x="718" 
d="M178 -10q-67 0 -107 30t-40 87q0 45 25 72.5t65 39.5t86 12h71v10q0 36 -20 54t-56 18q-28 0 -59.5 -8t-72.5 -26l-33 85q48 23 97 34.5t98 11.5q29 0 54 -4.5t45.5 -13.5t35.5 -21q27 19 62 29.5t75 10.5q61 0 104.5 -26.5t66.5 -73t23 -107.5v-27h-275q6 -25 21 -42
t37 -26t49 -9q36 0 68 12t56 31l41 -88q-34 -30 -81 -48t-104 -18t-99.5 16.5t-72.5 45.5q-35 -31 -75 -46t-85 -15zM222 67q20 0 40 8t40 24q-7 15 -12.5 32t-7.5 35h-48q-19 0 -35 -5t-26 -16t-10 -29q0 -23 15.5 -36t43.5 -13zM420 240h141q0 24 -8 40.5t-22.5 25.5
t-36.5 9q-21 0 -36.5 -9t-25 -25.5t-12.5 -40.5zM235 469v79h262v-79h-262z" />
    <glyph glyph-name="Gcaron" unicode="&#x1e6;" horiz-adv-x="733" 
d="M367 -10q-98 0 -172.5 37t-116.5 104.5t-42 155.5q0 90 39.5 157.5t109.5 105.5t162 38q97 0 156.5 -41.5t77.5 -106.5l-41 25v113h113v-207h-97q-25 49 -65.5 75t-101.5 26q-54 0 -93.5 -21.5t-61 -62t-21.5 -99.5q0 -57 20 -98t56.5 -63t84.5 -22q32 0 58 8t45 24
t29.5 40t10.5 57l55 -23h-156v103h262v-41q0 -72 -23 -125.5t-65.5 -88.5t-99 -52.5t-123.5 -17.5zM313 638l-78 174h98l60 -113l60 113h89l-69 -174h-160z" />
    <glyph glyph-name="gcaron" unicode="&#x1e7;" horiz-adv-x="535" 
d="M253 -195q-48 0 -91.5 9t-87.5 23l24 91q39 -12 69 -17.5t59 -5.5q49 0 74 24.5t25 71.5v45l38 18q-33 -37 -67 -54.5t-84 -17.5q-59 0 -102 25.5t-66 72t-23 110.5t23 111t65.5 73t101.5 26q48 0 84.5 -21t56.5 -49l-20 -8l1 68h189v-87h-49v-292q0 -72 -27 -120
t-76 -72t-117 -24zM257 304q-24 -1 -43 -13t-29.5 -35t-10.5 -57q0 -31 11.5 -53.5t30.5 -35t45 -12.5t49.5 10.5t43.5 30.5l-29 -61l-1 238l25 -58q-20 23 -43.5 34.5t-48.5 11.5zM199 461l-78 174h98l60 -113l60 113h89l-69 -174h-160z" />
    <glyph glyph-name="uni01E8" unicode="&#x1e8;" horiz-adv-x="698" 
d="M47 0v102h57v373h-57v103h285v-103h-58v-167l170 167h-50v103h264v-103h-46l-179 -177l191 -196h46v-102h-278v102h44l-162 172v-172h58v-102h-285zM287 638l-78 174h98l60 -113l60 113h89l-69 -174h-160z" />
    <glyph glyph-name="uni01E9" unicode="&#x1e9;" horiz-adv-x="535" 
d="M16 0v88h52v412h-52v88h197v-375l130 100h-51v87h227v-87h-41l-120 -94l122 -131h43v-88h-140l-170 196v-108h49v-88h-246zM65 648l-78 174h98l60 -113l60 113h89l-69 -174h-160z" />
    <glyph glyph-name="uni01EA" unicode="&#x1ea;" horiz-adv-x="729" 
d="M364 -10q-74 0 -134.5 21t-103.5 61t-66.5 94t-23.5 121q0 66 23.5 121t66.5 95.5t103.5 62.5t134.5 22t135 -22t104 -62.5t66 -95t23 -121.5q0 -66 -23 -120.5t-66 -94.5t-103.5 -61t-135.5 -21zM364 106q35 0 63 13.5t48 38t30.5 58.5t10.5 74q0 42 -10.5 75
t-30.5 57.5t-48 37t-63 12.5t-62.5 -13t-47.5 -37t-30.5 -57.5t-10.5 -74.5t10.5 -74.5t30.5 -58t47.5 -38t62.5 -13.5zM390 -193q-43 0 -67 23.5t-24 58.5q0 29 17 57t49 54h52q-20 -23 -31.5 -42t-11.5 -38q0 -18 14 -30t38 -12q21 0 42 8v-61q-20 -9 -38.5 -13.5
t-39.5 -4.5z" />
    <glyph glyph-name="uni01EB" unicode="&#x1eb;" horiz-adv-x="482" 
d="M241 -11q-67 0 -117 26.5t-78 74.5t-28 111t28 110t78 73.5t117 26.5t117 -26.5t78 -73.5t28 -110t-28 -111t-78 -74.5t-117 -26.5zM241 101q26 0 45.5 12t29.5 34.5t10 53.5t-10 53t-29.5 34t-45.5 12q-27 0 -45.5 -12t-29 -34t-10.5 -53t10.5 -53.5t29 -34.5t45.5 -12z
M244 -193q-43 0 -67 23.5t-24 58.5q0 29 17 57t49 54h52q-20 -23 -31.5 -42t-11.5 -38q0 -18 14 -30t38 -12q21 0 42 8v-61q-20 -9 -38.5 -13.5t-39.5 -4.5z" />
    <glyph glyph-name="uni01F0" unicode="&#x1f0;" horiz-adv-x="301" 
d="M-6 -165v110h38q42 0 59 18.5t17 62.5v279h-74v95h226v-354q0 -55 -13 -94.5t-39.5 -65.5t-67 -38.5t-94.5 -12.5h-52zM88 461l-78 174h98l60 -113l60 113h89l-69 -174h-160z" />
    <glyph glyph-name="uni01F1" unicode="&#x1f1;" horiz-adv-x="1324" 
d="M47 0v102h58v373h-58v103h343q77 0 134 -22.5t95.5 -61.5t57.5 -91t19 -112q0 -65 -19.5 -118.5t-57 -92t-95 -59.5t-133.5 -21h-344zM274 102h86q43 0 73 13t49.5 37.5t28.5 59.5t9 79q0 42 -9 76t-28 58t-49.5 37t-72.5 13h-87v-373zM772 0v81l278 397h-162v-111h-109
v211h499v-80l-280 -399h177v124h112v-223h-515z" />
    <glyph glyph-name="uni01F2" unicode="&#x1f2;" horiz-adv-x="1176" 
d="M47 0v102h58v373h-58v103h343q77 0 134 -22.5t95.5 -61.5t57.5 -91t19 -112q0 -65 -19.5 -118.5t-57 -92t-95 -59.5t-133.5 -21h-344zM274 102h86q43 0 73 13t49.5 37.5t28.5 59.5t9 79q0 42 -9 76t-28 58t-49.5 37t-72.5 13h-87v-373zM752 0v73l215 244h-125v-74h-89
v157h386v-73l-218 -245h137v85h89v-167h-395z" />
    <glyph glyph-name="uni01F3" unicode="&#x1f3;" horiz-adv-x="985" 
d="M205 -10q-55 0 -97 26t-65.5 74t-23.5 112q0 63 23.5 110t65.5 72.5t95 25.5q50 0 85.5 -18.5t57.5 -49.5l-25 -9v167h-63v88h211v-500h49v-88h-186l-4 48l39 13q-32 -33 -71 -52t-91 -19zM259 100q27 0 48 10.5t40 29.5l-26 -50v215l23 -50q-17 22 -38.5 33.5
t-47.5 11.5q-25 0 -44.5 -11.5t-30.5 -34t-11 -56.5q0 -29 11.5 -51t30.5 -34.5t45 -12.5zM561 0v73l215 244h-125v-74h-89v157h386v-73l-218 -245h137v85h89v-167h-395z" />
    <glyph glyph-name="uni01F4" unicode="&#x1f4;" horiz-adv-x="733" 
d="M367 -10q-98 0 -172.5 37t-116.5 104.5t-42 155.5q0 90 39.5 157.5t109.5 105.5t162 38q97 0 156.5 -41.5t77.5 -106.5l-41 25v113h113v-207h-97q-25 49 -65.5 75t-101.5 26q-54 0 -93.5 -21.5t-61 -62t-21.5 -99.5q0 -57 20 -98t56.5 -63t84.5 -22q32 0 58 8t45 24
t29.5 40t10.5 57l55 -23h-156v103h262v-41q0 -72 -23 -125.5t-65.5 -88.5t-99 -52.5t-123.5 -17.5zM347 641l43 173h138l-97 -173h-84z" />
    <glyph glyph-name="uni01F5" unicode="&#x1f5;" horiz-adv-x="535" 
d="M253 -195q-48 0 -91.5 9t-87.5 23l24 91q39 -12 69 -17.5t59 -5.5q49 0 74 24.5t25 71.5v45l38 18q-33 -37 -67 -54.5t-84 -17.5q-59 0 -102 25.5t-66 72t-23 110.5t23 111t65.5 73t101.5 26q48 0 84.5 -21t56.5 -49l-20 -8l1 68h189v-87h-49v-292q0 -72 -27 -120
t-76 -72t-117 -24zM257 304q-24 -1 -43 -13t-29.5 -35t-10.5 -57q0 -31 11.5 -53.5t30.5 -35t45 -12.5t49.5 10.5t43.5 30.5l-29 -61l-1 238l25 -58q-20 23 -43.5 34.5t-48.5 11.5zM233 464l43 173h138l-97 -173h-84z" />
    <glyph glyph-name="uni01F8" unicode="&#x1f8;" horiz-adv-x="750" 
d="M48 0v102h58v373h-58v103h253l243 -366v263h-66v103h235v-103h-57v-475h-169l-272 407v-305h66v-102h-233zM345 641l-96 173h138l43 -173h-85z" />
    <glyph glyph-name="uni01F9" unicode="&#x1f9;" horiz-adv-x="542" 
d="M16 0v88h52v225h-52v87h190l3 -49l-37 -14q41 34 84 53.5t90 19.5q65 0 101 -39.5t36 -99.5v-183h51v-88h-242v88h42v159q0 30 -14 46.5t-39 16.5q-24 0 -48 -10.5t-47 -28.5l31 61v-244h43v-88h-244zM222 464l-96 173h138l43 -173h-85z" />
    <glyph glyph-name="Aringacute" unicode="&#x1fa;" horiz-adv-x="730" 
d="M22 0v102h59l141 373h-56v103h398v-103h-57l143 -373h58v-102h-294v102h64l-33 102h-179l-33 -102h56v-102h-267zM296 300h120l-55 175h-6zM365 632q-44 0 -69 24t-25 65q0 42 25 66t69 24t69 -24t25 -66q0 -41 -25 -65.5t-69 -23.5zM365 677q21 0 32.5 11.5t11.5 32.5
q0 22 -11.5 34t-32.5 12t-32.5 -12t-11.5 -34q0 -21 11.5 -32.5t32.5 -11.5zM323 852l43 173h138l-97 -173h-84z" />
    <glyph glyph-name="aringacute" unicode="&#x1fb;" horiz-adv-x="483" 
d="M164 -10q-61 0 -97 32t-36 85q0 45 22.5 72.5t59 39.5t77.5 12q34 0 63 -6t48 -15l-23 -5v33q0 38 -19.5 56.5t-56.5 18.5q-28 0 -59.5 -8t-72.5 -26l-33 85q50 23 100 34.5t101 11.5q59 0 100.5 -19.5t63 -56t21.5 -87.5v-159h48v-88h-170l-20 62h36q-33 -36 -70 -54
t-83 -18zM215 67q21 0 42 10t40 33l-19 -37v97l19 -21q-14 8 -32.5 13t-40.5 5q-24 0 -42.5 -11.5t-18.5 -39.5q0 -23 13.5 -36t38.5 -13zM238 455q-44 0 -69 24t-25 65q0 42 25 66t69 24t69 -24t25 -66q0 -41 -25 -65.5t-69 -23.5zM238 500q21 0 32.5 11.5t11.5 32.5
q0 22 -11.5 34t-32.5 12t-32.5 -12t-11.5 -34q0 -21 11.5 -32.5t32.5 -11.5zM196 674l43 173h138l-97 -173h-84z" />
    <glyph glyph-name="AEacute" unicode="&#x1fc;" horiz-adv-x="986" 
d="M13 0v102h60l208 373h-56v103h681l14 -203h-105l-9 100h-216l8 -133h94l-5 58h84l17 -212h-84l-5 58h-96l9 -143h223l-8 109h105l14 -212h-560v102h57l-6 99h-159l-50 -99h54v-102h-269zM323 296h109l-10 179h-6zM504 641l43 173h138l-97 -173h-84z" />
    <glyph glyph-name="aeacute" unicode="&#x1fd;" horiz-adv-x="718" 
d="M178 -10q-67 0 -107 30t-40 87q0 45 25 72.5t65 39.5t86 12h71v10q0 36 -20 54t-56 18q-28 0 -59.5 -8t-72.5 -26l-33 85q48 23 97 34.5t98 11.5q29 0 54 -4.5t45.5 -13.5t35.5 -21q27 19 62 29.5t75 10.5q61 0 104.5 -26.5t66.5 -73t23 -107.5v-27h-275q6 -25 21 -42
t37 -26t49 -9q36 0 68 12t56 31l41 -88q-34 -30 -81 -48t-104 -18t-99.5 16.5t-72.5 45.5q-35 -31 -75 -46t-85 -15zM222 67q20 0 40 8t40 24q-7 15 -12.5 32t-7.5 35h-48q-19 0 -35 -5t-26 -16t-10 -29q0 -23 15.5 -36t43.5 -13zM420 240h141q0 24 -8 40.5t-22.5 25.5
t-36.5 9q-21 0 -36.5 -9t-25 -25.5t-12.5 -40.5zM324 464l43 173h138l-97 -173h-84z" />
    <glyph glyph-name="Oslashacute" unicode="&#x1fe;" horiz-adv-x="692" 
d="M145 -50l-64 45l470 617l65 -45zM346 -11q-74 0 -134.5 21.5t-103.5 61t-66.5 94t-23.5 120.5q0 67 23.5 122t66.5 95t103.5 62t134.5 22t135 -22t103.5 -62t66 -95t23.5 -121t-23.5 -121t-66 -94.5t-103 -61t-135.5 -21.5zM346 106q35 0 63 13.5t48 38t30.5 58
t10.5 74.5t-10.5 74.5t-30.5 57.5t-48 37t-63 13t-62.5 -13t-47.5 -37t-30.5 -57.5t-10.5 -74.5t10.5 -74.5t30.5 -58.5t47.5 -38t62.5 -13zM304 641l43 173h138l-97 -173h-84z" />
    <glyph glyph-name="oslashacute" unicode="&#x1ff;" horiz-adv-x="514" 
d="M137 -59l-43 20l257 494l43 -20zM241 -11q-67 0 -117 26.5t-78 74.5t-28 111t28 110t78 73.5t117 26.5t117 -26.5t78 -73.5t28 -110t-28 -111t-78 -74.5t-117 -26.5zM241 101q26 0 45.5 12t29.5 34.5t10 53.5t-10 53t-29.5 34t-45.5 12q-27 0 -45.5 -12t-29 -34
t-10.5 -53t10.5 -53.5t29 -34.5t45.5 -12zM200 464l43 173h138l-97 -173h-84z" />
    <glyph glyph-name="uni0200" unicode="&#x200;" horiz-adv-x="730" 
d="M22 0v102h59l141 373h-56v103h398v-103h-57l143 -373h58v-102h-294v102h64l-33 102h-179l-33 -102h56v-102h-267zM296 300h120l-55 175h-6zM222 641l-98 175h138l45 -175h-85zM415 641l-97 175h138l45 -175h-86z" />
    <glyph glyph-name="uni0201" unicode="&#x201;" horiz-adv-x="483" 
d="M164 -10q-61 0 -97 32t-36 85q0 45 22.5 72.5t59 39.5t77.5 12q34 0 63 -6t48 -15l-23 -5v33q0 38 -19.5 56.5t-56.5 18.5q-28 0 -59.5 -8t-72.5 -26l-33 85q50 23 100 34.5t101 11.5q59 0 100.5 -19.5t63 -56t21.5 -87.5v-159h48v-88h-170l-20 62h36q-33 -36 -70 -54
t-83 -18zM215 67q21 0 42 10t40 33l-19 -37v97l19 -21q-14 8 -32.5 13t-40.5 5q-24 0 -42.5 -11.5t-18.5 -39.5q0 -23 13.5 -36t38.5 -13zM95 464l-98 175h138l45 -175h-85zM288 464l-97 175h138l45 -175h-86z" />
    <glyph glyph-name="uni0202" unicode="&#x202;" horiz-adv-x="730" 
d="M22 0v102h59l141 373h-56v103h398v-103h-57l143 -373h58v-102h-294v102h64l-33 102h-179l-33 -102h56v-102h-267zM296 300h120l-55 175h-6zM210 624q4 76 44.5 115t110.5 39q69 0 110 -39t44 -115h-89q-9 62 -65 62t-65 -62h-90z" />
    <glyph glyph-name="uni0203" unicode="&#x203;" horiz-adv-x="483" 
d="M164 -10q-61 0 -97 32t-36 85q0 45 22.5 72.5t59 39.5t77.5 12q34 0 63 -6t48 -15l-23 -5v33q0 38 -19.5 56.5t-56.5 18.5q-28 0 -59.5 -8t-72.5 -26l-33 85q50 23 100 34.5t101 11.5q59 0 100.5 -19.5t63 -56t21.5 -87.5v-159h48v-88h-170l-20 62h36q-33 -36 -70 -54
t-83 -18zM215 67q21 0 42 10t40 33l-19 -37v97l19 -21q-14 8 -32.5 13t-40.5 5q-24 0 -42.5 -11.5t-18.5 -39.5q0 -23 13.5 -36t38.5 -13zM83 447q4 76 44.5 115t110.5 39q69 0 110 -39t44 -115h-89q-9 62 -65 62t-65 -62h-90z" />
    <glyph glyph-name="uni0204" unicode="&#x204;" horiz-adv-x="651" 
d="M47 0v102h57v373h-57v103h547v-200h-105v97h-215v-132h90v58h84v-211h-84v58h-90v-145h219v107h105v-210h-551zM201 641l-98 175h138l45 -175h-85zM394 641l-97 175h138l45 -175h-86z" />
    <glyph glyph-name="uni0205" unicode="&#x205;" 
d="M248 -11q-69 0 -120.5 25t-80.5 72.5t-29 113.5q0 63 28 110t77.5 74t113.5 27q63 0 107.5 -26.5t68 -73t23.5 -107.5v-27h-336l1 63h198q0 24 -7.5 40.5t-22.5 25.5t-37 9q-25 0 -42 -12.5t-25.5 -36t-8.5 -55.5q0 -37 14.5 -61.5t39.5 -37t58 -12.5q36 0 68 12t56 31
l41 -88q-34 -30 -81 -48t-104 -18zM106 464l-98 175h138l45 -175h-85zM299 464l-97 175h138l45 -175h-86z" />
    <glyph glyph-name="uni0206" unicode="&#x206;" horiz-adv-x="651" 
d="M47 0v102h57v373h-57v103h547v-200h-105v97h-215v-132h90v58h84v-211h-84v58h-90v-145h219v107h105v-210h-551zM189 624q4 76 44.5 115t110.5 39q69 0 110 -39t44 -115h-89q-9 62 -65 62t-65 -62h-90z" />
    <glyph glyph-name="uni0207" unicode="&#x207;" 
d="M248 -11q-69 0 -120.5 25t-80.5 72.5t-29 113.5q0 63 28 110t77.5 74t113.5 27q63 0 107.5 -26.5t68 -73t23.5 -107.5v-27h-336l1 63h198q0 24 -7.5 40.5t-22.5 25.5t-37 9q-25 0 -42 -12.5t-25.5 -36t-8.5 -55.5q0 -37 14.5 -61.5t39.5 -37t58 -12.5q36 0 68 12t56 31
l41 -88q-34 -30 -81 -48t-104 -18zM94 447q4 76 44.5 115t110.5 39q69 0 110 -39t44 -115h-89q-9 62 -65 62t-65 -62h-90z" />
    <glyph glyph-name="uni0208" unicode="&#x208;" horiz-adv-x="384" 
d="M50 0v102h57v373h-57v103h284v-103h-58v-373h58v-102h-284zM49 641l-98 175h138l45 -175h-85zM242 641l-97 175h138l45 -175h-86z" />
    <glyph glyph-name="uni0209" unicode="&#x209;" horiz-adv-x="289" 
d="M16 0v94h61v211h-56v95h202v-306h54v-94h-261zM5 463l-98 175h138l45 -175h-85zM198 463l-97 175h138l45 -175h-86z" />
    <glyph glyph-name="uni020A" unicode="&#x20a;" horiz-adv-x="384" 
d="M50 0v102h57v373h-57v103h284v-103h-58v-373h58v-102h-284zM37 624q4 76 44.5 115t110.5 39q69 0 110 -39t44 -115h-89q-9 62 -65 62t-65 -62h-90z" />
    <glyph glyph-name="uni020B" unicode="&#x20b;" horiz-adv-x="289" 
d="M16 0v94h61v211h-56v95h202v-306h54v-94h-261zM-7 446q4 76 44.5 115t110.5 39q69 0 110 -39t44 -115h-89q-9 62 -65 62t-65 -62h-90z" />
    <glyph glyph-name="uni020C" unicode="&#x20c;" horiz-adv-x="729" 
d="M364 -10q-74 0 -134.5 21t-103.5 61t-66.5 94t-23.5 121q0 66 23.5 121t66.5 95.5t103.5 62.5t134.5 22t135 -22t104 -62.5t66 -95t23 -121.5q0 -66 -23 -120.5t-66 -94.5t-103.5 -61t-135.5 -21zM364 106q35 0 63 13.5t48 38t30.5 58.5t10.5 74q0 42 -10.5 75
t-30.5 57.5t-48 37t-63 12.5t-62.5 -13t-47.5 -37t-30.5 -57.5t-10.5 -74.5t10.5 -74.5t30.5 -58t47.5 -38t62.5 -13.5zM221 641l-98 175h138l45 -175h-85zM414 641l-97 175h138l45 -175h-86z" />
    <glyph glyph-name="uni020D" unicode="&#x20d;" horiz-adv-x="482" 
d="M241 -11q-67 0 -117 26.5t-78 74.5t-28 111t28 110t78 73.5t117 26.5t117 -26.5t78 -73.5t28 -110t-28 -111t-78 -74.5t-117 -26.5zM241 101q26 0 45.5 12t29.5 34.5t10 53.5t-10 53t-29.5 34t-45.5 12q-27 0 -45.5 -12t-29 -34t-10.5 -53t10.5 -53.5t29 -34.5t45.5 -12z
M98 464l-98 175h138l45 -175h-85zM291 464l-97 175h138l45 -175h-86z" />
    <glyph glyph-name="uni020E" unicode="&#x20e;" horiz-adv-x="729" 
d="M364 -10q-74 0 -134.5 21t-103.5 61t-66.5 94t-23.5 121q0 66 23.5 121t66.5 95.5t103.5 62.5t134.5 22t135 -22t104 -62.5t66 -95t23 -121.5q0 -66 -23 -120.5t-66 -94.5t-103.5 -61t-135.5 -21zM364 106q35 0 63 13.5t48 38t30.5 58.5t10.5 74q0 42 -10.5 75
t-30.5 57.5t-48 37t-63 12.5t-62.5 -13t-47.5 -37t-30.5 -57.5t-10.5 -74.5t10.5 -74.5t30.5 -58t47.5 -38t62.5 -13.5zM209 624q4 76 44.5 115t110.5 39q69 0 110 -39t44 -115h-89q-9 62 -65 62t-65 -62h-90z" />
    <glyph glyph-name="uni020F" unicode="&#x20f;" horiz-adv-x="482" 
d="M241 -11q-67 0 -117 26.5t-78 74.5t-28 111t28 110t78 73.5t117 26.5t117 -26.5t78 -73.5t28 -110t-28 -111t-78 -74.5t-117 -26.5zM241 101q26 0 45.5 12t29.5 34.5t10 53.5t-10 53t-29.5 34t-45.5 12q-27 0 -45.5 -12t-29 -34t-10.5 -53t10.5 -53.5t29 -34.5t45.5 -12z
M86 447q4 76 44.5 115t110.5 39q69 0 110 -39t44 -115h-89q-9 62 -65 62t-65 -62h-90z" />
    <glyph glyph-name="uni0210" unicode="&#x210;" horiz-adv-x="705" 
d="M47 0v102h57v373h-57v103h349q70 0 124 -17.5t85 -54.5t31 -100q0 -39 -14 -69t-40 -50.5t-64 -32.5l95 -151h58v-103h-183l-133 234h-42v103h71q28 0 45 9.5t25.5 26t8.5 38.5q0 19 -8.5 33.5t-25.5 22.5t-41 8h-114v-373h54v-102h-281zM209 641l-98 175h138l45 -175
h-85zM402 641l-97 175h138l45 -175h-86z" />
    <glyph glyph-name="uni0211" unicode="&#x211;" horiz-adv-x="410" 
d="M20 0v88h52v225h-52v87h200v-123l-17 -1q16 53 36.5 81.5t44 40t46.5 11.5q21 0 40 -4.5t36 -13.5l-31 -120q-15 9 -36.5 15t-45.5 6q-25 0 -49 -15t-24 -51v-138h57v-88h-257zM76 464l-98 175h138l45 -175h-85zM269 464l-97 175h138l45 -175h-86z" />
    <glyph glyph-name="uni0212" unicode="&#x212;" horiz-adv-x="705" 
d="M47 0v102h57v373h-57v103h349q70 0 124 -17.5t85 -54.5t31 -100q0 -39 -14 -69t-40 -50.5t-64 -32.5l95 -151h58v-103h-183l-133 234h-42v103h71q28 0 45 9.5t25.5 26t8.5 38.5q0 19 -8.5 33.5t-25.5 22.5t-41 8h-114v-373h54v-102h-281zM197 624q4 76 44.5 115t110.5 39
q69 0 110 -39t44 -115h-89q-9 62 -65 62t-65 -62h-90z" />
    <glyph glyph-name="uni0213" unicode="&#x213;" horiz-adv-x="410" 
d="M20 0v88h52v225h-52v87h200v-123l-17 -1q16 53 36.5 81.5t44 40t46.5 11.5q21 0 40 -4.5t36 -13.5l-31 -120q-15 9 -36.5 15t-45.5 6q-25 0 -49 -15t-24 -51v-138h57v-88h-257zM64 447q4 76 44.5 115t110.5 39q69 0 110 -39t44 -115h-89q-9 62 -65 62t-65 -62h-90z" />
    <glyph glyph-name="uni0214" unicode="&#x214;" horiz-adv-x="693" 
d="M352 -11q-86 0 -144.5 25.5t-88.5 75t-30 121.5v264h-57v103h288v-103h-62v-265q0 -37 12.5 -63t36.5 -39.5t59 -13.5q36 0 61 13.5t38 39.5t13 63v265h-48v103h233v-103h-57v-263q0 -73 -29 -122.5t-85.5 -75t-139.5 -25.5zM218 641l-98 175h138l45 -175h-85zM411 641
l-97 175h138l45 -175h-86z" />
    <glyph glyph-name="uni0215" unicode="&#x215;" horiz-adv-x="540" 
d="M197 -10q-46 0 -76.5 19t-45.5 51t-15 70v183h-50v87h199v-248q0 -29 13.5 -45.5t39.5 -16.5q25 0 49.5 12t45.5 33l-30 -64v242h-44v87h192v-312h52v-88h-188l-5 52l37 14q-39 -35 -82 -55.5t-92 -20.5zM112 464l-98 175h138l45 -175h-85zM305 464l-97 175h138l45 -175
h-86z" />
    <glyph glyph-name="uni0216" unicode="&#x216;" horiz-adv-x="693" 
d="M352 -11q-86 0 -144.5 25.5t-88.5 75t-30 121.5v264h-57v103h288v-103h-62v-265q0 -37 12.5 -63t36.5 -39.5t59 -13.5q36 0 61 13.5t38 39.5t13 63v265h-48v103h233v-103h-57v-263q0 -73 -29 -122.5t-85.5 -75t-139.5 -25.5zM206 624q4 76 44.5 115t110.5 39
q69 0 110 -39t44 -115h-89q-9 62 -65 62t-65 -62h-90z" />
    <glyph glyph-name="uni0217" unicode="&#x217;" horiz-adv-x="540" 
d="M197 -10q-46 0 -76.5 19t-45.5 51t-15 70v183h-50v87h199v-248q0 -29 13.5 -45.5t39.5 -16.5q25 0 49.5 12t45.5 33l-30 -64v242h-44v87h192v-312h52v-88h-188l-5 52l37 14q-39 -35 -82 -55.5t-92 -20.5zM100 447q4 76 44.5 115t110.5 39q69 0 110 -39t44 -115h-89
q-9 62 -65 62t-65 -62h-90z" />
    <glyph glyph-name="uni0218" unicode="&#x218;" horiz-adv-x="591" 
d="M351 -10q-42 0 -85 13t-76 38t-44 60h22v-101h-112v197h100q14 -33 38 -58t56 -39t71 -14q33 0 52.5 14.5t19.5 43.5q0 21 -9 34.5t-29.5 22t-53.5 15.5l-66 13q-93 20 -138.5 65t-45.5 122q0 51 24 90t67.5 60.5t101.5 21.5q68 0 117 -24t79 -69h-23v83h105v-169h-96
q-10 20 -28.5 39t-45.5 31.5t-65 12.5q-32 0 -50 -13.5t-18 -38.5q0 -28 25 -44t81 -27l35 -7q66 -12 108 -35.5t62.5 -61t20.5 -92.5q0 -57 -25 -97.5t-69.5 -63t-105.5 -22.5zM252 -301v49q31 3 46 21.5t15 57.5h-68v117h141v-96q0 -74 -29.5 -111.5t-104.5 -37.5z" />
    <glyph glyph-name="uni0219" unicode="&#x219;" 
d="M267 -10q-36 0 -68 8.5t-55 25t-34 37.5l28 2v-63h-93v132h87l5 -54l-26 37q22 -21 52 -34t63 -13q25 0 39 9t14 25q0 20 -16 29.5t-52 17.5l-36 7q-70 16 -100.5 45.5t-30.5 82.5q0 59 41.5 92.5t108.5 33.5q35 0 64.5 -9t49 -23.5t25.5 -30.5l-31 -2v56h93v-126h-87
l-7 63l23 -39q-8 11 -23.5 19t-34.5 12.5t-37 4.5q-21 0 -35 -8.5t-14 -25.5q0 -16 13 -24t36 -14l42 -8q47 -10 78.5 -26.5t48 -43t16.5 -68.5t-19.5 -70t-53 -42.5t-74.5 -14.5zM183 -301v49q31 3 46 21.5t15 57.5h-68v117h141v-96q0 -74 -29.5 -111.5t-104.5 -37.5z" />
    <glyph glyph-name="uni021A" unicode="&#x21a;" horiz-adv-x="642" 
d="M172 0v102h65v376h-102v-114h-109v214h590v-214h-109v114h-101v-376h65v-102h-299zM258 -301v49q31 3 46 21.5t15 57.5h-68v117h141v-96q0 -74 -29.5 -111.5t-104.5 -37.5z" />
    <glyph glyph-name="uni021B" unicode="&#x21b;" horiz-adv-x="328" 
d="M195 0q-62 0 -95.5 28.5t-33.5 90.5v194h-50v87h49v130l149 25v-155h90v-87h-90v-169q0 -29 10.5 -41t36.5 -12h46v-91h-112zM140 -301v49q31 3 46 21.5t15 57.5h-68v117h141v-96q0 -74 -29.5 -111.5t-104.5 -37.5z" />
    <glyph glyph-name="uni021E" unicode="&#x21e;" horiz-adv-x="748" 
d="M47 0v102h57v373h-57v103h284v-103h-57v-133h201v133h-58v103h284v-103h-58v-373h58v-102h-284v102h58v144h-201v-144h57v-102h-284zM299 638l-78 174h98l60 -113l60 113h89l-69 -174h-160z" />
    <glyph glyph-name="uni021F" unicode="&#x21f;" horiz-adv-x="540" 
d="M11 0v88h51v412h-50v88h199v-238l-45 -14q41 34 84 54t92 20q65 0 100.5 -39.5t35.5 -99.5v-183h52v-88h-242v88h42v159q0 30 -14 46.5t-40 16.5q-24 0 -49 -11t-47 -29l31 62v-244h42v-88h-242zM61 649l-78 174h98l60 -113l60 113h89l-69 -174h-160z" />
    <glyph glyph-name="uni0226" unicode="&#x226;" horiz-adv-x="730" 
d="M22 0v102h59l141 373h-56v103h398v-103h-57l143 -373h58v-102h-294v102h64l-33 102h-179l-33 -102h56v-102h-267zM296 300h120l-55 175h-6zM366 655q-37 0 -60 22t-23 58q0 35 23 57t60 22q38 0 60 -21.5t22 -57.5q1 -35 -21.5 -57.5t-60.5 -22.5z" />
    <glyph glyph-name="uni0227" unicode="&#x227;" horiz-adv-x="483" 
d="M164 -10q-61 0 -97 32t-36 85q0 45 22.5 72.5t59 39.5t77.5 12q34 0 63 -6t48 -15l-23 -5v33q0 38 -19.5 56.5t-56.5 18.5q-28 0 -59.5 -8t-72.5 -26l-33 85q50 23 100 34.5t101 11.5q59 0 100.5 -19.5t63 -56t21.5 -87.5v-159h48v-88h-170l-20 62h36q-33 -36 -70 -54
t-83 -18zM215 67q21 0 42 10t40 33l-19 -37v97l19 -21q-14 8 -32.5 13t-40.5 5q-24 0 -42.5 -11.5t-18.5 -39.5q0 -23 13.5 -36t38.5 -13zM239 478q-37 0 -60 22t-23 58q0 35 23 57t60 22q38 0 60 -21.5t22 -57.5q1 -35 -21.5 -57.5t-60.5 -22.5z" />
    <glyph glyph-name="uni0228" unicode="&#x228;" horiz-adv-x="651" 
d="M47 0v102h57v373h-57v103h547v-200h-105v97h-215v-132h90v58h84v-211h-84v58h-90v-145h219v107h105v-210h-551zM328 -203q-49 0 -89 25v39q14 -5 29 -9t28 -4q15 0 25 7t10 24q0 16 -13.5 24t-44.5 9l35 88h53l-15 -57q38 -6 56 -26.5t18 -46.5q0 -38 -28 -55.5
t-64 -17.5z" />
    <glyph glyph-name="uni0229" unicode="&#x229;" 
d="M248 -11q-69 0 -120.5 25t-80.5 72.5t-29 113.5q0 63 28 110t77.5 74t113.5 27q63 0 107.5 -26.5t68 -73t23.5 -107.5v-27h-336l1 63h198q0 24 -7.5 40.5t-22.5 25.5t-37 9q-25 0 -42 -12.5t-25.5 -36t-8.5 -55.5q0 -37 14.5 -61.5t39.5 -37t58 -12.5q36 0 68 12t56 31
l41 -88q-34 -30 -81 -48t-104 -18zM252 -203q-49 0 -89 25v39q14 -5 29 -9t28 -4q15 0 25 7t10 24q0 16 -13.5 24t-44.5 9l35 88h53l-15 -57q38 -6 56 -26.5t18 -46.5q0 -38 -28 -55.5t-64 -17.5z" />
    <glyph glyph-name="uni022A" unicode="&#x22a;" horiz-adv-x="729" 
d="M364 -10q-74 0 -134.5 21t-103.5 61t-66.5 94t-23.5 121q0 66 23.5 121t66.5 95.5t103.5 62.5t134.5 22t135 -22t104 -62.5t66 -95t23 -121.5q0 -66 -23 -120.5t-66 -94.5t-103.5 -61t-135.5 -21zM364 106q35 0 63 13.5t48 38t30.5 58.5t10.5 74q0 42 -10.5 75
t-30.5 57.5t-48 37t-63 12.5t-62.5 -13t-47.5 -37t-30.5 -57.5t-10.5 -74.5t10.5 -74.5t30.5 -58t47.5 -38t62.5 -13.5zM241 655q-32 0 -55.5 19t-23.5 56t23.5 56.5t55.5 19.5t55.5 -19.5t23.5 -56.5t-23.5 -56t-55.5 -19zM487 655q-32 0 -55 19t-23 56t23 56.5t55 19.5
t55.5 -19.5t23.5 -56.5t-23.5 -56t-55.5 -19zM233 852v79h262v-79h-262z" />
    <glyph glyph-name="uni022B" unicode="&#x22b;" horiz-adv-x="482" 
d="M241 -11q-67 0 -117 26.5t-78 74.5t-28 111t28 110t78 73.5t117 26.5t117 -26.5t78 -73.5t28 -110t-28 -111t-78 -74.5t-117 -26.5zM241 101q26 0 45.5 12t29.5 34.5t10 53.5t-10 53t-29.5 34t-45.5 12q-27 0 -45.5 -12t-29 -34t-10.5 -53t10.5 -53.5t29 -34.5t45.5 -12z
M118 478q-32 0 -55.5 19t-23.5 56t23.5 56.5t55.5 19.5t55.5 -19.5t23.5 -56.5t-23.5 -56t-55.5 -19zM364 478q-32 0 -55 19t-23 56t23 56.5t55 19.5t55.5 -19.5t23.5 -56.5t-23.5 -56t-55.5 -19zM110 675v79h262v-79h-262z" />
    <glyph glyph-name="uni022C" unicode="&#x22c;" horiz-adv-x="729" 
d="M364 -10q-74 0 -134.5 21t-103.5 61t-66.5 94t-23.5 121q0 66 23.5 121t66.5 95.5t103.5 62.5t134.5 22t135 -22t104 -62.5t66 -95t23 -121.5q0 -66 -23 -120.5t-66 -94.5t-103.5 -61t-135.5 -21zM364 106q35 0 63 13.5t48 38t30.5 58.5t10.5 74q0 42 -10.5 75
t-30.5 57.5t-48 37t-63 12.5t-62.5 -13t-47.5 -37t-30.5 -57.5t-10.5 -74.5t10.5 -74.5t30.5 -58t47.5 -38t62.5 -13.5zM436 648q-28 0 -55.5 11.5t-51.5 23t-42 11.5q-36 0 -40 -41h-70q7 79 39.5 111.5t76.5 32.5q27 0 54.5 -11t51.5 -23t41 -12q18 0 28.5 10t13.5 31h69
q-6 -77 -38 -110.5t-77 -33.5zM233 839v79h262v-79h-262z" />
    <glyph glyph-name="uni022D" unicode="&#x22d;" horiz-adv-x="482" 
d="M241 -11q-67 0 -117 26.5t-78 74.5t-28 111t28 110t78 73.5t117 26.5t117 -26.5t78 -73.5t28 -110t-28 -111t-78 -74.5t-117 -26.5zM241 101q26 0 45.5 12t29.5 34.5t10 53.5t-10 53t-29.5 34t-45.5 12q-27 0 -45.5 -12t-29 -34t-10.5 -53t10.5 -53.5t29 -34.5t45.5 -12z
M313 471q-28 0 -55.5 11.5t-51.5 23t-42 11.5q-36 0 -40 -41h-70q7 79 39.5 111.5t76.5 32.5q27 0 54.5 -11t51.5 -23t41 -12q18 0 28.5 10t13.5 31h69q-6 -77 -38 -110.5t-77 -33.5zM110 662v79h262v-79h-262z" />
    <glyph glyph-name="uni022E" unicode="&#x22e;" horiz-adv-x="729" 
d="M364 -10q-74 0 -134.5 21t-103.5 61t-66.5 94t-23.5 121q0 66 23.5 121t66.5 95.5t103.5 62.5t134.5 22t135 -22t104 -62.5t66 -95t23 -121.5q0 -66 -23 -120.5t-66 -94.5t-103.5 -61t-135.5 -21zM364 106q35 0 63 13.5t48 38t30.5 58.5t10.5 74q0 42 -10.5 75
t-30.5 57.5t-48 37t-63 12.5t-62.5 -13t-47.5 -37t-30.5 -57.5t-10.5 -74.5t10.5 -74.5t30.5 -58t47.5 -38t62.5 -13.5zM364 655q-37 0 -60 22t-23 58q0 35 23 57t60 22q38 0 60 -21.5t22 -57.5q1 -35 -21.5 -57.5t-60.5 -22.5z" />
    <glyph glyph-name="uni022F" unicode="&#x22f;" horiz-adv-x="482" 
d="M241 -11q-67 0 -117 26.5t-78 74.5t-28 111t28 110t78 73.5t117 26.5t117 -26.5t78 -73.5t28 -110t-28 -111t-78 -74.5t-117 -26.5zM241 101q26 0 45.5 12t29.5 34.5t10 53.5t-10 53t-29.5 34t-45.5 12q-27 0 -45.5 -12t-29 -34t-10.5 -53t10.5 -53.5t29 -34.5t45.5 -12z
M241 478q-37 0 -60 22t-23 58q0 35 23 57t60 22q38 0 60 -21.5t22 -57.5q1 -35 -21.5 -57.5t-60.5 -22.5z" />
    <glyph glyph-name="uni0230" unicode="&#x230;" horiz-adv-x="729" 
d="M364 -10q-74 0 -134.5 21t-103.5 61t-66.5 94t-23.5 121q0 66 23.5 121t66.5 95.5t103.5 62.5t134.5 22t135 -22t104 -62.5t66 -95t23 -121.5q0 -66 -23 -120.5t-66 -94.5t-103.5 -61t-135.5 -21zM364 106q35 0 63 13.5t48 38t30.5 58.5t10.5 74q0 42 -10.5 75
t-30.5 57.5t-48 37t-63 12.5t-62.5 -13t-47.5 -37t-30.5 -57.5t-10.5 -74.5t10.5 -74.5t30.5 -58t47.5 -38t62.5 -13.5zM364 655q-37 0 -60 22t-23 58q0 35 23 57t60 22q38 0 60 -21.5t22 -57.5q1 -35 -21.5 -57.5t-60.5 -22.5zM233 858v79h262v-79h-262z" />
    <glyph glyph-name="uni0231" unicode="&#x231;" horiz-adv-x="482" 
d="M241 -11q-67 0 -117 26.5t-78 74.5t-28 111t28 110t78 73.5t117 26.5t117 -26.5t78 -73.5t28 -110t-28 -111t-78 -74.5t-117 -26.5zM241 101q26 0 45.5 12t29.5 34.5t10 53.5t-10 53t-29.5 34t-45.5 12q-27 0 -45.5 -12t-29 -34t-10.5 -53t10.5 -53.5t29 -34.5t45.5 -12z
M241 478q-37 0 -60 22t-23 58q0 35 23 57t60 22q38 0 60 -21.5t22 -57.5q1 -35 -21.5 -57.5t-60.5 -22.5zM110 681v79h262v-79h-262z" />
    <glyph glyph-name="uni0232" unicode="&#x232;" horiz-adv-x="673" 
d="M190 0v102h66v114l-188 259h-57v103h304v-103h-62l106 -158l105 158h-63v103h261v-103h-58l-179 -259v-114h66v-102h-301zM227 646v79h262v-79h-262z" />
    <glyph glyph-name="uni0233" unicode="&#x233;" horiz-adv-x="523" 
d="M89 -169v108h36q24 0 40 4.5t28 15.5t22 32l17 35h-40l-149 287h-41v87h241v-87h-48l83 -178l78 178h-50v87h217v-87h-39l-167 -340q-25 -49 -45.5 -80.5t-51 -46.5t-85.5 -15h-46zM144 469v79h262v-79h-262z" />
    <glyph glyph-name="uni0237" unicode="&#x237;" horiz-adv-x="301" 
d="M-6 -165v110h38q42 0 59 18.5t17 62.5v279h-74v95h226v-354q0 -55 -13 -94.5t-39.5 -65.5t-67 -38.5t-94.5 -12.5h-52z" />
    <glyph glyph-name="uni0259" unicode="&#x259;" 
d="M223 -10q-67 0 -112.5 26.5t-68 73t-22.5 106.5v28h336l-1 -64h-198q0 -23 8 -40t24 -25.5t38 -8.5q25 0 40.5 12.5t23.5 36t8 56.5q0 36 -13.5 60t-38 36.5t-56.5 12.5q-37 0 -69.5 -12.5t-57.5 -30.5l-41 88q35 27 85 46.5t109 19.5q67 0 116.5 -25t76.5 -71.5
t27 -113.5q0 -62 -27 -110t-75.5 -74.5t-111.5 -26.5z" />
    <glyph glyph-name="uni02BB" unicode="&#x2bb;" horiz-adv-x="335" 
d="M233 607v-50q-30 -1 -44 -20t-14 -62h59v-125h-134v100q0 79 30.5 118t102.5 39z" />
    <glyph glyph-name="uni02BC" unicode="&#x2bc;" horiz-adv-x="341" 
d="M101 427v49q34 3 50.5 21.5t16.5 60.5h-68v122h141v-101q0 -71 -30.5 -111.5t-109.5 -40.5z" />
    <glyph glyph-name="uni02BE" unicode="&#x2be;" horiz-adv-x="294" 
d="M100 455v45q21 0 32.5 11.5t11.5 32.5q0 22 -11.5 34t-32.5 12v44q45 0 69.5 -24t24.5 -66q0 -41 -25 -65t-69 -24z" />
    <glyph glyph-name="uni02BF" unicode="&#x2bf;" horiz-adv-x="294" 
d="M194 455v45q-21 0 -32.5 11.5t-11.5 32.5q0 22 11.5 34t32.5 12v44q-45 0 -69.5 -24t-24.5 -66q0 -41 25 -65t69 -24z" />
    <glyph glyph-name="circumflex" unicode="&#x2c6;" horiz-adv-x="522" 
d="M100 461l86 175h152l84 -175h-93l-68 114l-68 -114h-93z" />
    <glyph glyph-name="caron" unicode="&#x2c7;" horiz-adv-x="508" 
d="M178 461l-78 174h98l60 -113l60 113h89l-69 -174h-160z" />
    <glyph glyph-name="uni02C8" unicode="&#x2c8;" horiz-adv-x="230" 
d="M55 400v208h120v-208h-120z" />
    <glyph glyph-name="uni02C9" unicode="&#x2c9;" horiz-adv-x="462" 
d="M100 469v79h262v-79h-262z" />
    <glyph glyph-name="uni02CA" unicode="&#x2ca;" horiz-adv-x="381" 
d="M100 464l43 173h138l-97 -173h-84z" />
    <glyph glyph-name="uni02CB" unicode="&#x2cb;" horiz-adv-x="381" 
d="M196 464l-96 173h138l43 -173h-85z" />
    <glyph glyph-name="uni02CC" unicode="&#x2cc;" horiz-adv-x="230" 
d="M55 -56v207h120v-207h-120z" />
    <glyph glyph-name="breve" unicode="&#x2d8;" horiz-adv-x="520" 
d="M260 469q-75 0 -115.5 36.5t-44.5 105.5h97q9 -62 63 -62q27 0 43.5 16t19.5 46h97q-6 -69 -46.5 -105.5t-113.5 -36.5z" />
    <glyph glyph-name="dotaccent" unicode="&#x2d9;" horiz-adv-x="365" 
d="M183 478q-37 0 -60 22t-23 58q0 35 23 57t60 22q38 0 60 -21.5t22 -57.5q1 -35 -21.5 -57.5t-60.5 -22.5z" />
    <glyph glyph-name="ring" unicode="&#x2da;" horiz-adv-x="388" 
d="M194 455q-44 0 -69 24t-25 65q0 42 25 66t69 24t69 -24t25 -66q0 -41 -25 -65.5t-69 -23.5zM194 500q21 0 32.5 11.5t11.5 32.5q0 22 -11.5 34t-32.5 12t-32.5 -12t-11.5 -34q0 -21 11.5 -32.5t32.5 -11.5z" />
    <glyph glyph-name="ogonek" unicode="&#x2db;" horiz-adv-x="369" 
d="M188 -193q-43 0 -67 23.5t-24 58.5q0 29 17 57t49 54h52q-20 -23 -31.5 -42t-11.5 -38q0 -18 14 -30t38 -12q21 0 42 8v-61q-20 -9 -38.5 -13.5t-39.5 -4.5z" />
    <glyph glyph-name="tilde" unicode="&#x2dc;" horiz-adv-x="573" 
d="M359 471q-28 0 -55.5 11.5t-51.5 23t-42 11.5q-36 0 -40 -41h-70q7 79 39.5 111.5t76.5 32.5q27 0 54.5 -11t51.5 -23t41 -12q18 0 28.5 10t13.5 31h69q-6 -77 -38 -110.5t-77 -33.5z" />
    <glyph glyph-name="hungarumlaut" unicode="&#x2dd;" horiz-adv-x="577" 
d="M100 464l45 175h138l-98 -175h-85zM294 464l45 175h138l-98 -175h-85z" />
    <glyph glyph-name="gravecomb" unicode="&#x300;" horiz-adv-x="0" 
d="M-45 464l-96 173h138l43 -173h-85z" />
    <glyph glyph-name="acutecomb" unicode="&#x301;" horiz-adv-x="0" 
d="M-42 464l43 173h138l-97 -173h-84z" />
    <glyph glyph-name="uni0302" unicode="&#x302;" horiz-adv-x="0" 
d="M-161 461l86 175h152l84 -175h-93l-68 114l-68 -114h-93z" />
    <glyph glyph-name="tildecomb" unicode="&#x303;" horiz-adv-x="0" 
d="M72 471q-28 0 -55.5 11.5t-51.5 23t-42 11.5q-36 0 -40 -41h-70q7 79 39.5 111.5t76.5 32.5q27 0 54.5 -11t51.5 -23t41 -12q18 0 28.5 10t13.5 31h69q-6 -77 -38 -110.5t-77 -33.5z" />
    <glyph glyph-name="uni0304" unicode="&#x304;" horiz-adv-x="0" 
d="M-131 469v79h262v-79h-262z" />
    <glyph glyph-name="uni0306" unicode="&#x306;" horiz-adv-x="0" 
d="M0 469q-75 0 -115.5 36.5t-44.5 105.5h97q9 -62 63 -62q27 0 43.5 16t19.5 46h97q-6 -69 -46.5 -105.5t-113.5 -36.5z" />
    <glyph glyph-name="uni0307" unicode="&#x307;" horiz-adv-x="0" 
d="M0 478q-37 0 -60 22t-23 58q0 35 23 57t60 22q38 0 60 -21.5t22 -57.5q1 -35 -21.5 -57.5t-60.5 -22.5z" />
    <glyph glyph-name="uni0308" unicode="&#x308;" horiz-adv-x="0" 
d="M-123 478q-32 0 -55.5 19t-23.5 56t23.5 56.5t55.5 19.5t55.5 -19.5t23.5 -56.5t-23.5 -56t-55.5 -19zM123 478q-32 0 -55 19t-23 56t23 56.5t55 19.5t55.5 -19.5t23.5 -56.5t-23.5 -56t-55.5 -19z" />
    <glyph glyph-name="hookabovecomb" unicode="&#x309;" horiz-adv-x="0" 
d="M-6 444l-14 44q15 7 24 15.5t9 22.5q0 16 -11 24t-30 8q-15 0 -29.5 -4.5t-27.5 -12.5l-17 49q18 15 42.5 24.5t52.5 9.5q43 0 69 -22t26 -60t-24.5 -62.5t-69.5 -35.5z" />
    <glyph glyph-name="uni030A" unicode="&#x30a;" horiz-adv-x="0" 
d="M0 455q-44 0 -69 24t-25 65q0 42 25 66t69 24t69 -24t25 -66q0 -41 -25 -65.5t-69 -23.5zM0 500q21 0 32.5 11.5t11.5 32.5q0 22 -11.5 34t-32.5 12t-32.5 -12t-11.5 -34q0 -21 11.5 -32.5t32.5 -11.5z" />
    <glyph glyph-name="uni030B" unicode="&#x30b;" horiz-adv-x="0" 
d="M-146 464l45 175h138l-98 -175h-85zM48 464l45 175h138l-98 -175h-85z" />
    <glyph glyph-name="uni030C" unicode="&#x30c;" horiz-adv-x="0" 
d="M-76 461l-78 174h98l60 -113l60 113h89l-69 -174h-160z" />
    <glyph glyph-name="uni030F" unicode="&#x30f;" horiz-adv-x="0" 
d="M-143 464l-98 175h138l45 -175h-85zM50 464l-97 175h138l45 -175h-86z" />
    <glyph glyph-name="uni0311" unicode="&#x311;" horiz-adv-x="0" 
d="M-155 447q4 76 44.5 115t110.5 39q69 0 110 -39t44 -115h-89q-9 62 -65 62t-65 -62h-90z" />
    <glyph glyph-name="uni0312" unicode="&#x312;" horiz-adv-x="0" 
d="M63 728v-49q-31 -3 -46 -21.5t-15 -57.5h68v-117h-141v96q0 74 29.5 111.5t104.5 37.5z" />
    <glyph glyph-name="uni031B" unicode="&#x31b;" horiz-adv-x="0" 
d="M-23 325v75h19q31 0 50.5 17.5t21.5 53.5h105q-5 -71 -48 -108.5t-119 -37.5h-29z" />
    <glyph glyph-name="dotbelowcomb" unicode="&#x323;" horiz-adv-x="0" 
d="M0 -194q-34 0 -54.5 19.5t-20.5 49.5q0 31 20.5 50t54.5 19t54 -18.5t21 -50.5q1 -30 -20 -49.5t-55 -19.5z" />
    <glyph glyph-name="uni0324" unicode="&#x324;" horiz-adv-x="0" 
d="M-123 -207q-32 0 -55.5 19t-23.5 56t23.5 56.5t55.5 19.5t55.5 -19.5t23.5 -56.5t-23.5 -56t-55.5 -19zM123 -207q-32 0 -55 19t-23 56t23 56.5t55 19.5t55.5 -19.5t23.5 -56.5t-23.5 -56t-55.5 -19z" />
    <glyph glyph-name="uni0326" unicode="&#x326;" horiz-adv-x="0" 
d="M-64 -301v49q31 3 46 21.5t15 57.5h-68v117h141v-96q0 -74 -29.5 -111.5t-104.5 -37.5z" />
    <glyph glyph-name="uni0327" unicode="&#x327;" horiz-adv-x="0" 
d="M-6 -203q-49 0 -89 25v39q14 -5 29 -9t28 -4q15 0 25 7t10 24q0 16 -13.5 24t-44.5 9l35 88h53l-15 -57q38 -6 56 -26.5t18 -46.5q0 -38 -28 -55.5t-64 -17.5z" />
    <glyph glyph-name="uni0328" unicode="&#x328;" horiz-adv-x="0" 
d="M-16 -193q-43 0 -67 23.5t-24 58.5q0 29 17 57t49 54h52q-20 -23 -31.5 -42t-11.5 -38q0 -18 14 -30t38 -12q21 0 42 8v-61q-20 -9 -38.5 -13.5t-39.5 -4.5z" />
    <glyph glyph-name="uni032E" unicode="&#x32e;" horiz-adv-x="0" 
d="M0 -198q-75 0 -115.5 36.5t-44.5 105.5h97q9 -62 63 -62q27 0 43.5 16t19.5 46h97q-6 -69 -46.5 -105.5t-113.5 -36.5z" />
    <glyph glyph-name="uni0331" unicode="&#x331;" horiz-adv-x="0" 
d="M-131 -154v79h262v-79h-262z" />
    <glyph glyph-name="uni0335" unicode="&#x335;" horiz-adv-x="0" 
d="M-221 191v91h441v-91h-441z" />
    <glyph glyph-name="uni0394" unicode="&#x394;" horiz-adv-x="592" 
d="M31 0v86l200 477h126l204 -477v-86h-530zM147 97h273l-134 355z" />
    <glyph glyph-name="Sigma" unicode="&#x3a3;" horiz-adv-x="543" 
d="M43 0v90l161 205l-153 198v70h436v-95h-245l161 -194l-146 -179h246v-95h-460z" />
    <glyph glyph-name="uni03A9" unicode="&#x3a9;" horiz-adv-x="719" 
d="M44 0v94h122q-43 25 -70.5 59.5t-40 74t-12.5 81.5q0 71 37.5 131t108.5 96.5t170 36.5q101 0 171.5 -36.5t108 -96.5t37.5 -130q0 -42 -13 -82t-39.5 -74.5t-70.5 -59.5h122v-94h-283v86q51 17 82 52t44.5 78.5t13.5 84.5q0 52 -20.5 90.5t-59 59t-93.5 20.5
q-54 0 -92.5 -20.5t-59 -58.5t-20.5 -90q0 -41 13.5 -85t44.5 -79t82 -52v-86h-283z" />
    <glyph glyph-name="uni03BC" unicode="&#x3bc;" horiz-adv-x="588" 
d="M60 -130v332h146v-332h-146zM197 -10q-46 0 -76.5 19t-45.5 51t-15 70v183h-50v87h199v-248q0 -29 13.5 -45.5t39.5 -16.5q25 0 49.5 12t45.5 33l-30 -64v242h-44v87h192v-312h52v-88h-188l-5 52l37 14q-39 -35 -82 -55.5t-92 -20.5z" />
    <glyph glyph-name="pi" unicode="&#x3c0;" horiz-adv-x="638" 
d="M463 -10q-59 0 -86.5 31.5t-27.5 81.5q0 26 5 55.5t14 62.5t22 70h-95l-19 -170q-6 -51 -26 -77.5t-63 -35.5t-120 -9v54q25 4 43 13.5t31 30.5t23 59l35 135h-30q-22 0 -34 -12.5t-14 -38.5h-65q-1 40 12.5 74.5t44.5 56.5t83 22h370v-102h-85q-3 -35 -5.5 -64t-4 -53
t-1.5 -45q0 -32 14 -45.5t38 -13.5q8 0 20 2t26 6v-57q-19 -13 -45.5 -22t-59.5 -9z" />
    <glyph glyph-name="uni1E02" unicode="&#x1e02;" horiz-adv-x="657" 
d="M47 0v102h57v373h-57v103h334q111 0 162 -39t51 -102q0 -50 -27 -79.5t-84 -42.5q51 -8 82 -29.5t45 -52.5t14 -69q0 -52 -26 -89t-78.5 -56t-132.5 -19h-340zM274 103h79q51 0 73.5 21t22.5 57t-23 56.5t-74 20.5h-78v-155zM274 353h71q40 0 59 16.5t19 46.5t-19.5 44.5
t-62.5 14.5h-67v-122zM324 655q-37 0 -60 22t-23 58q0 35 23 57t60 22q38 0 60 -21.5t22 -57.5q1 -35 -21.5 -57.5t-60.5 -22.5z" />
    <glyph glyph-name="uni1E03" unicode="&#x1e03;" horiz-adv-x="534" 
d="M214 588v-254l-25 6q23 31 61 50.5t86 19.5q55 0 95.5 -25.5t62 -71.5t21.5 -108q0 -66 -23.5 -114t-65.5 -74.5t-98 -26.5q-51 0 -90 19.5t-70 52.5l39 -16l-4 -46h-189v88h52v412h-52v88h200zM276 300q-24 0 -46 -12t-39 -36l23 51v-214l-26 52q19 -19 40.5 -30
t47.5 -11q39 0 62.5 27t23.5 73q0 49 -24 74.5t-62 25.5zM187 618q-37 0 -60 22t-23 58q0 35 23 57t60 22q38 0 60 -21.5t22 -57.5q1 -35 -21.5 -57.5t-60.5 -22.5z" />
    <glyph glyph-name="uni1E08" unicode="&#x1e08;" horiz-adv-x="715" 
d="M365 -10q-71 0 -131 20.5t-104.5 59t-69 93.5t-24.5 125q0 92 40.5 159.5t110 104t159.5 36.5q63 0 110.5 -19t78 -52t41.5 -78l-40 29v110h112v-206h-96q-26 49 -65.5 74.5t-98.5 25.5q-55 0 -94.5 -23t-61 -63.5t-21.5 -95.5q0 -42 12 -75.5t33.5 -58t51.5 -37.5
t67 -13q41 0 72 15t52 44.5t31 72.5l133 -46q-14 -61 -53.5 -106.5t-101 -70.5t-143.5 -25zM355 -203q-49 0 -89 25v39q14 -5 29 -9t28 -4q15 0 25 7t10 24q0 16 -13.5 24t-44.5 9l35 88h53l-15 -57q38 -6 56 -26.5t18 -46.5q0 -38 -28 -55.5t-64 -17.5zM325 641l43 173h138
l-97 -173h-84z" />
    <glyph glyph-name="uni1E09" unicode="&#x1e09;" 
d="M245 -10q-67 0 -118 27t-79.5 75.5t-28.5 112.5q0 62 26.5 108.5t71 72t100.5 25.5q55 0 88.5 -22.5t48.5 -58.5h-27v71h98v-166h-92q-4 37 -25 58t-61 21q-28 0 -48 -12.5t-31 -35.5t-11 -54q0 -34 14 -59t39 -39t59 -14q38 0 68.5 12.5t54.5 33.5l42 -89
q-35 -30 -81.5 -48.5t-107.5 -18.5zM246 -203q-49 0 -89 25v39q14 -5 29 -9t28 -4q15 0 25 7t10 24q0 16 -13.5 24t-44.5 9l35 88h53l-15 -57q38 -6 56 -26.5t18 -46.5q0 -38 -28 -55.5t-64 -17.5zM199 464l43 173h138l-97 -173h-84z" />
    <glyph glyph-name="uni1E0A" unicode="&#x1e0a;" horiz-adv-x="732" 
d="M47 0v102h58v373h-58v103h343q77 0 134 -22.5t95.5 -61.5t57.5 -91t19 -112q0 -65 -19.5 -118.5t-57 -92t-95 -59.5t-133.5 -21h-344zM274 102h86q43 0 73 13t49.5 37.5t28.5 59.5t9 79q0 42 -9 76t-28 58t-49.5 37t-72.5 13h-87v-373zM380 655q-37 0 -60 22t-23 58
q0 35 23 57t60 22q38 0 60 -21.5t22 -57.5q1 -35 -21.5 -57.5t-60.5 -22.5z" />
    <glyph glyph-name="uni1E0B" unicode="&#x1e0b;" horiz-adv-x="530" 
d="M205 -10q-55 0 -97 26t-65.5 74t-23.5 112q0 63 23.5 110t65.5 72.5t95 25.5q50 0 85.5 -18.5t57.5 -49.5l-25 -9v167h-63v88h211v-500h49v-88h-186l-4 48l39 13q-32 -33 -71 -52t-91 -19zM259 100q27 0 48 10.5t40 29.5l-26 -50v215l23 -50q-17 22 -38.5 33.5
t-47.5 11.5q-25 0 -44.5 -11.5t-30.5 -34t-11 -56.5q0 -29 11.5 -51t30.5 -34.5t45 -12.5zM396 665q-37 0 -60 22t-23 58q0 35 23 57t60 22q38 0 60 -21.5t22 -57.5q1 -35 -21.5 -57.5t-60.5 -22.5z" />
    <glyph glyph-name="uni1E0C" unicode="&#x1e0c;" horiz-adv-x="732" 
d="M47 0v102h58v373h-58v103h343q77 0 134 -22.5t95.5 -61.5t57.5 -91t19 -112q0 -65 -19.5 -118.5t-57 -92t-95 -59.5t-133.5 -21h-344zM274 102h86q43 0 73 13t49.5 37.5t28.5 59.5t9 79q0 42 -9 76t-28 58t-49.5 37t-72.5 13h-87v-373zM375 -194q-34 0 -54.5 19.5
t-20.5 49.5q0 31 20.5 50t54.5 19t54 -18.5t21 -50.5q1 -30 -20 -49.5t-55 -19.5z" />
    <glyph glyph-name="uni1E0D" unicode="&#x1e0d;" horiz-adv-x="530" 
d="M205 -10q-55 0 -97 26t-65.5 74t-23.5 112q0 63 23.5 110t65.5 72.5t95 25.5q50 0 85.5 -18.5t57.5 -49.5l-25 -9v167h-63v88h211v-500h49v-88h-186l-4 48l39 13q-32 -33 -71 -52t-91 -19zM259 100q27 0 48 10.5t40 29.5l-26 -50v215l23 -50q-17 22 -38.5 33.5
t-47.5 11.5q-25 0 -44.5 -11.5t-30.5 -34t-11 -56.5q0 -29 11.5 -51t30.5 -34.5t45 -12.5zM280 -194q-34 0 -54.5 19.5t-20.5 49.5q0 31 20.5 50t54.5 19t54 -18.5t21 -50.5q1 -30 -20 -49.5t-55 -19.5z" />
    <glyph glyph-name="uni1E0E" unicode="&#x1e0e;" horiz-adv-x="732" 
d="M47 0v102h58v373h-58v103h343q77 0 134 -22.5t95.5 -61.5t57.5 -91t19 -112q0 -65 -19.5 -118.5t-57 -92t-95 -59.5t-133.5 -21h-344zM274 102h86q43 0 73 13t49.5 37.5t28.5 59.5t9 79q0 42 -9 76t-28 58t-49.5 37t-72.5 13h-87v-373zM244 -154v79h262v-79h-262z" />
    <glyph glyph-name="uni1E0F" unicode="&#x1e0f;" horiz-adv-x="530" 
d="M205 -10q-55 0 -97 26t-65.5 74t-23.5 112q0 63 23.5 110t65.5 72.5t95 25.5q50 0 85.5 -18.5t57.5 -49.5l-25 -9v167h-63v88h211v-500h49v-88h-186l-4 48l39 13q-32 -33 -71 -52t-91 -19zM259 100q27 0 48 10.5t40 29.5l-26 -50v215l23 -50q-17 22 -38.5 33.5
t-47.5 11.5q-25 0 -44.5 -11.5t-30.5 -34t-11 -56.5q0 -29 11.5 -51t30.5 -34.5t45 -12.5zM149 -154v79h262v-79h-262z" />
    <glyph glyph-name="uni1E14" unicode="&#x1e14;" horiz-adv-x="651" 
d="M47 0v102h57v373h-57v103h547v-200h-105v97h-215v-132h90v58h84v-211h-84v58h-90v-145h219v107h105v-210h-551zM213 646v79h262v-79h-262zM299 786l-96 173h138l43 -173h-85z" />
    <glyph glyph-name="uni1E15" unicode="&#x1e15;" 
d="M248 -11q-69 0 -120.5 25t-80.5 72.5t-29 113.5q0 63 28 110t77.5 74t113.5 27q63 0 107.5 -26.5t68 -73t23.5 -107.5v-27h-336l1 63h198q0 24 -7.5 40.5t-22.5 25.5t-37 9q-25 0 -42 -12.5t-25.5 -36t-8.5 -55.5q0 -37 14.5 -61.5t39.5 -37t58 -12.5q36 0 68 12t56 31
l41 -88q-34 -30 -81 -48t-104 -18zM118 469v79h262v-79h-262zM204 609l-96 173h138l43 -173h-85z" />
    <glyph glyph-name="uni1E16" unicode="&#x1e16;" horiz-adv-x="651" 
d="M47 0v102h57v373h-57v103h547v-200h-105v97h-215v-132h90v58h84v-211h-84v58h-90v-145h219v107h105v-210h-551zM213 646v79h262v-79h-262zM302 786l43 173h138l-97 -173h-84z" />
    <glyph glyph-name="uni1E17" unicode="&#x1e17;" 
d="M248 -11q-69 0 -120.5 25t-80.5 72.5t-29 113.5q0 63 28 110t77.5 74t113.5 27q63 0 107.5 -26.5t68 -73t23.5 -107.5v-27h-336l1 63h198q0 24 -7.5 40.5t-22.5 25.5t-37 9q-25 0 -42 -12.5t-25.5 -36t-8.5 -55.5q0 -37 14.5 -61.5t39.5 -37t58 -12.5q36 0 68 12t56 31
l41 -88q-34 -30 -81 -48t-104 -18zM118 469v79h262v-79h-262zM207 609l43 173h138l-97 -173h-84z" />
    <glyph glyph-name="uni1E1C" unicode="&#x1e1c;" horiz-adv-x="651" 
d="M47 0v102h57v373h-57v103h547v-200h-105v97h-215v-132h90v58h84v-211h-84v58h-90v-145h219v107h105v-210h-551zM328 -203q-49 0 -89 25v39q14 -5 29 -9t28 -4q15 0 25 7t10 24q0 16 -13.5 24t-44.5 9l35 88h53l-15 -57q38 -6 56 -26.5t18 -46.5q0 -38 -28 -55.5
t-64 -17.5zM344 646q-75 0 -115.5 36.5t-44.5 105.5h97q9 -62 63 -62q27 0 43.5 16t19.5 46h97q-6 -69 -46.5 -105.5t-113.5 -36.5z" />
    <glyph glyph-name="uni1E1D" unicode="&#x1e1d;" 
d="M248 -11q-69 0 -120.5 25t-80.5 72.5t-29 113.5q0 63 28 110t77.5 74t113.5 27q63 0 107.5 -26.5t68 -73t23.5 -107.5v-27h-336l1 63h198q0 24 -7.5 40.5t-22.5 25.5t-37 9q-25 0 -42 -12.5t-25.5 -36t-8.5 -55.5q0 -37 14.5 -61.5t39.5 -37t58 -12.5q36 0 68 12t56 31
l41 -88q-34 -30 -81 -48t-104 -18zM252 -203q-49 0 -89 25v39q14 -5 29 -9t28 -4q15 0 25 7t10 24q0 16 -13.5 24t-44.5 9l35 88h53l-15 -57q38 -6 56 -26.5t18 -46.5q0 -38 -28 -55.5t-64 -17.5zM249 469q-75 0 -115.5 36.5t-44.5 105.5h97q9 -62 63 -62q27 0 43.5 16
t19.5 46h97q-6 -69 -46.5 -105.5t-113.5 -36.5z" />
    <glyph glyph-name="uni1E1E" unicode="&#x1e1e;" horiz-adv-x="610" 
d="M47 0v102h57v373h-57v103h544v-204h-105v101h-212v-131h88v56h84v-210h-84v58h-88v-146h64v-102h-291zM324 655q-37 0 -60 22t-23 58q0 35 23 57t60 22q38 0 60 -21.5t22 -57.5q1 -35 -21.5 -57.5t-60.5 -22.5z" />
    <glyph glyph-name="uni1E1F" unicode="&#x1e1f;" horiz-adv-x="317" 
d="M18 0v88h53v225h-53v87h53v51q0 47 19.5 84t60.5 59t104 22q78 0 118.5 -32.5t47.5 -92.5l-113 -20q-1 27 -10.5 42.5t-32.5 15.5q-22 0 -33.5 -16.5t-11.5 -58.5v-54h97v-87h-97v-225h70v-88h-272zM257 684q-37 0 -60 22t-23 58q0 35 23 57t60 22q38 0 60 -21.5
t22 -57.5q1 -35 -21.5 -57.5t-60.5 -22.5z" />
    <glyph glyph-name="uni1E20" unicode="&#x1e20;" horiz-adv-x="733" 
d="M367 -10q-98 0 -172.5 37t-116.5 104.5t-42 155.5q0 90 39.5 157.5t109.5 105.5t162 38q97 0 156.5 -41.5t77.5 -106.5l-41 25v113h113v-207h-97q-25 49 -65.5 75t-101.5 26q-54 0 -93.5 -21.5t-61 -62t-21.5 -99.5q0 -57 20 -98t56.5 -63t84.5 -22q32 0 58 8t45 24
t29.5 40t10.5 57l55 -23h-156v103h262v-41q0 -72 -23 -125.5t-65.5 -88.5t-99 -52.5t-123.5 -17.5zM258 646v79h262v-79h-262z" />
    <glyph glyph-name="uni1E21" unicode="&#x1e21;" horiz-adv-x="535" 
d="M253 -195q-48 0 -91.5 9t-87.5 23l24 91q39 -12 69 -17.5t59 -5.5q49 0 74 24.5t25 71.5v45l38 18q-33 -37 -67 -54.5t-84 -17.5q-59 0 -102 25.5t-66 72t-23 110.5t23 111t65.5 73t101.5 26q48 0 84.5 -21t56.5 -49l-20 -8l1 68h189v-87h-49v-292q0 -72 -27 -120
t-76 -72t-117 -24zM257 304q-24 -1 -43 -13t-29.5 -35t-10.5 -57q0 -31 11.5 -53.5t30.5 -35t45 -12.5t49.5 10.5t43.5 30.5l-29 -61l-1 238l25 -58q-20 23 -43.5 34.5t-48.5 11.5zM144 469v79h262v-79h-262z" />
    <glyph glyph-name="uni1E24" unicode="&#x1e24;" horiz-adv-x="748" 
d="M47 0v102h57v373h-57v103h284v-103h-57v-133h201v133h-58v103h284v-103h-58v-373h58v-102h-284v102h58v144h-201v-144h57v-102h-284zM391 -194q-34 0 -54.5 19.5t-20.5 49.5q0 31 20.5 50t54.5 19t54 -18.5t21 -50.5q1 -30 -20 -49.5t-55 -19.5z" />
    <glyph glyph-name="uni1E25" unicode="&#x1e25;" horiz-adv-x="540" 
d="M11 0v88h51v412h-50v88h199v-238l-45 -14q41 34 84 54t92 20q65 0 100.5 -39.5t35.5 -99.5v-183h52v-88h-242v88h42v159q0 30 -14 46.5t-40 16.5q-24 0 -49 -11t-47 -29l31 62v-244h42v-88h-242zM271 -194q-34 0 -54.5 19.5t-20.5 49.5q0 31 20.5 50t54.5 19t54 -18.5
t21 -50.5q1 -30 -20 -49.5t-55 -19.5z" />
    <glyph glyph-name="uni1E2A" unicode="&#x1e2a;" horiz-adv-x="748" 
d="M47 0v102h57v373h-57v103h284v-103h-57v-133h201v133h-58v103h284v-103h-58v-373h58v-102h-284v102h58v144h-201v-144h57v-102h-284zM391 -198q-75 0 -115.5 36.5t-44.5 105.5h97q9 -62 63 -62q27 0 43.5 16t19.5 46h97q-6 -69 -46.5 -105.5t-113.5 -36.5z" />
    <glyph glyph-name="uni1E2B" unicode="&#x1e2b;" horiz-adv-x="540" 
d="M11 0v88h51v412h-50v88h199v-238l-45 -14q41 34 84 54t92 20q65 0 100.5 -39.5t35.5 -99.5v-183h52v-88h-242v88h42v159q0 30 -14 46.5t-40 16.5q-24 0 -49 -11t-47 -29l31 62v-244h42v-88h-242zM271 -198q-75 0 -115.5 36.5t-44.5 105.5h97q9 -62 63 -62q27 0 43.5 16
t19.5 46h97q-6 -69 -46.5 -105.5t-113.5 -36.5z" />
    <glyph glyph-name="uni1E2E" unicode="&#x1e2e;" horiz-adv-x="384" 
d="M50 0v102h57v373h-57v103h284v-103h-58v-373h58v-102h-284zM69 655q-32 0 -55.5 19t-23.5 56t23.5 56.5t55.5 19.5t55.5 -19.5t23.5 -56.5t-23.5 -56t-55.5 -19zM315 655q-32 0 -55 19t-23 56t23 56.5t55 19.5t55.5 -19.5t23.5 -56.5t-23.5 -56t-55.5 -19zM150 847
l43 173h138l-97 -173h-84z" />
    <glyph glyph-name="uni1E2F" unicode="&#x1e2f;" horiz-adv-x="289" 
d="M16 0v94h61v211h-56v95h202v-306h54v-94h-261zM25 477q-32 0 -55.5 19t-23.5 56t23.5 56.5t55.5 19.5t55.5 -19.5t23.5 -56.5t-23.5 -56t-55.5 -19zM271 477q-32 0 -55 19t-23 56t23 56.5t55 19.5t55.5 -19.5t23.5 -56.5t-23.5 -56t-55.5 -19zM106 669l43 173h138
l-97 -173h-84z" />
    <glyph glyph-name="uni1E36" unicode="&#x1e36;" horiz-adv-x="568" 
d="M47 0v102h57v381h-57v95h284v-95h-57v-381h158v153h113v-255h-498zM298 -194q-34 0 -54.5 19.5t-20.5 49.5q0 31 20.5 50t54.5 19t54 -18.5t21 -50.5q1 -30 -20 -49.5t-55 -19.5z" />
    <glyph glyph-name="uni1E37" unicode="&#x1e37;" horiz-adv-x="276" 
d="M16 0v88h52v412h-52v88h198v-500h49v-88h-247zM140 -194q-34 0 -54.5 19.5t-20.5 49.5q0 31 20.5 50t54.5 19t54 -18.5t21 -50.5q1 -30 -20 -49.5t-55 -19.5z" />
    <glyph glyph-name="uni1E3A" unicode="&#x1e3a;" horiz-adv-x="568" 
d="M47 0v102h57v381h-57v95h284v-95h-57v-381h158v153h113v-255h-498zM167 -154v79h262v-79h-262z" />
    <glyph glyph-name="uni1E3B" unicode="&#x1e3b;" horiz-adv-x="276" 
d="M16 0v88h52v412h-52v88h198v-500h49v-88h-247zM9 -154v79h262v-79h-262z" />
    <glyph glyph-name="uni1E40" unicode="&#x1e40;" horiz-adv-x="903" 
d="M47 0v102h57v373h-57v103h284l128 -312l124 312h273v-103h-57v-373h57v-102h-274v102h56v325l-162 -404h-74l-164 404v-325h56v-102h-247zM457 655q-37 0 -60 22t-23 58q0 35 23 57t60 22q38 0 60 -21.5t22 -57.5q1 -35 -21.5 -57.5t-60.5 -22.5z" />
    <glyph glyph-name="uni1E41" unicode="&#x1e41;" horiz-adv-x="815" 
d="M16 0v88h52v225h-51v87h189l3 -48l-37 -15q41 34 84 53.5t90 19.5q67 0 101.5 -40.5t34.5 -99.5v-182h51v-88h-242v88h43v159q0 30 -14 46.5t-40 16.5q-22 0 -47 -10.5t-47 -27.5l31 60v-244h43v-88h-244zM565 0v88h43v159q0 30 -14.5 46.5t-39.5 16.5q-23 0 -46.5 -10
t-44.5 -27l-18 64q41 34 83.5 53.5t90.5 19.5q65 0 101 -39.5t36 -99.5v-183h51v-88h-242zM427 478q-37 0 -60 22t-23 58q0 35 23 57t60 22q38 0 60 -21.5t22 -57.5q1 -35 -21.5 -57.5t-60.5 -22.5z" />
    <glyph glyph-name="uni1E42" unicode="&#x1e42;" horiz-adv-x="903" 
d="M47 0v102h57v373h-57v103h284l128 -312l124 312h273v-103h-57v-373h57v-102h-274v102h56v325l-162 -404h-74l-164 404v-325h56v-102h-247zM440 -194q-34 0 -54.5 19.5t-20.5 49.5q0 31 20.5 50t54.5 19t54 -18.5t21 -50.5q1 -30 -20 -49.5t-55 -19.5z" />
    <glyph glyph-name="uni1E43" unicode="&#x1e43;" horiz-adv-x="815" 
d="M16 0v88h52v225h-51v87h189l3 -48l-37 -15q41 34 84 53.5t90 19.5q67 0 101.5 -40.5t34.5 -99.5v-182h51v-88h-242v88h43v159q0 30 -14 46.5t-40 16.5q-22 0 -47 -10.5t-47 -27.5l31 60v-244h43v-88h-244zM565 0v88h43v159q0 30 -14.5 46.5t-39.5 16.5q-23 0 -46.5 -10
t-44.5 -27l-18 64q41 34 83.5 53.5t90.5 19.5q65 0 101 -39.5t36 -99.5v-183h51v-88h-242zM408 -194q-34 0 -54.5 19.5t-20.5 49.5q0 31 20.5 50t54.5 19t54 -18.5t21 -50.5q1 -30 -20 -49.5t-55 -19.5z" />
    <glyph glyph-name="uni1E44" unicode="&#x1e44;" horiz-adv-x="750" 
d="M48 0v102h58v373h-58v103h253l243 -366v263h-66v103h235v-103h-57v-475h-169l-272 407v-305h66v-102h-233zM390 655q-37 0 -60 22t-23 58q0 35 23 57t60 22q38 0 60 -21.5t22 -57.5q1 -35 -21.5 -57.5t-60.5 -22.5z" />
    <glyph glyph-name="uni1E45" unicode="&#x1e45;" horiz-adv-x="542" 
d="M16 0v88h52v225h-52v87h190l3 -49l-37 -14q41 34 84 53.5t90 19.5q65 0 101 -39.5t36 -99.5v-183h51v-88h-242v88h42v159q0 30 -14 46.5t-39 16.5q-24 0 -48 -10.5t-47 -28.5l31 61v-244h43v-88h-244zM267 478q-37 0 -60 22t-23 58q0 35 23 57t60 22q38 0 60 -21.5
t22 -57.5q1 -35 -21.5 -57.5t-60.5 -22.5z" />
    <glyph glyph-name="uni1E46" unicode="&#x1e46;" horiz-adv-x="750" 
d="M48 0v102h58v373h-58v103h253l243 -366v263h-66v103h235v-103h-57v-475h-169l-272 407v-305h66v-102h-233zM389 -194q-34 0 -54.5 19.5t-20.5 49.5q0 31 20.5 50t54.5 19t54 -18.5t21 -50.5q1 -30 -20 -49.5t-55 -19.5z" />
    <glyph glyph-name="uni1E47" unicode="&#x1e47;" horiz-adv-x="542" 
d="M16 0v88h52v225h-52v87h190l3 -49l-37 -14q41 34 84 53.5t90 19.5q65 0 101 -39.5t36 -99.5v-183h51v-88h-242v88h42v159q0 30 -14 46.5t-39 16.5q-24 0 -48 -10.5t-47 -28.5l31 61v-244h43v-88h-244zM278 -194q-34 0 -54.5 19.5t-20.5 49.5q0 31 20.5 50t54.5 19
t54 -18.5t21 -50.5q1 -30 -20 -49.5t-55 -19.5z" />
    <glyph glyph-name="uni1E48" unicode="&#x1e48;" horiz-adv-x="750" 
d="M48 0v102h58v373h-58v103h253l243 -366v263h-66v103h235v-103h-57v-475h-169l-272 407v-305h66v-102h-233zM258 -154v79h262v-79h-262z" />
    <glyph glyph-name="uni1E49" unicode="&#x1e49;" horiz-adv-x="542" 
d="M16 0v88h52v225h-52v87h190l3 -49l-37 -14q41 34 84 53.5t90 19.5q65 0 101 -39.5t36 -99.5v-183h51v-88h-242v88h42v159q0 30 -14 46.5t-39 16.5q-24 0 -48 -10.5t-47 -28.5l31 61v-244h43v-88h-244zM147 -154v79h262v-79h-262z" />
    <glyph glyph-name="uni1E4C" unicode="&#x1e4c;" horiz-adv-x="729" 
d="M364 -10q-74 0 -134.5 21t-103.5 61t-66.5 94t-23.5 121q0 66 23.5 121t66.5 95.5t103.5 62.5t134.5 22t135 -22t104 -62.5t66 -95t23 -121.5q0 -66 -23 -120.5t-66 -94.5t-103.5 -61t-135.5 -21zM364 106q35 0 63 13.5t48 38t30.5 58.5t10.5 74q0 42 -10.5 75
t-30.5 57.5t-48 37t-63 12.5t-62.5 -13t-47.5 -37t-30.5 -57.5t-10.5 -74.5t10.5 -74.5t30.5 -58t47.5 -38t62.5 -13.5zM436 648q-28 0 -55.5 11.5t-51.5 23t-42 11.5q-36 0 -40 -41h-70q7 79 39.5 111.5t76.5 32.5q27 0 54.5 -11t51.5 -23t41 -12q18 0 28.5 10t13.5 31h69
q-6 -77 -38 -110.5t-77 -33.5zM322 834l43 173h138l-97 -173h-84z" />
    <glyph glyph-name="uni1E4D" unicode="&#x1e4d;" horiz-adv-x="482" 
d="M241 -11q-67 0 -117 26.5t-78 74.5t-28 111t28 110t78 73.5t117 26.5t117 -26.5t78 -73.5t28 -110t-28 -111t-78 -74.5t-117 -26.5zM241 101q26 0 45.5 12t29.5 34.5t10 53.5t-10 53t-29.5 34t-45.5 12q-27 0 -45.5 -12t-29 -34t-10.5 -53t10.5 -53.5t29 -34.5t45.5 -12z
M313 471q-28 0 -55.5 11.5t-51.5 23t-42 11.5q-36 0 -40 -41h-70q7 79 39.5 111.5t76.5 32.5q27 0 54.5 -11t51.5 -23t41 -12q18 0 28.5 10t13.5 31h69q-6 -77 -38 -110.5t-77 -33.5zM199 657l43 173h138l-97 -173h-84z" />
    <glyph glyph-name="uni1E4E" unicode="&#x1e4e;" horiz-adv-x="729" 
d="M364 -10q-74 0 -134.5 21t-103.5 61t-66.5 94t-23.5 121q0 66 23.5 121t66.5 95.5t103.5 62.5t134.5 22t135 -22t104 -62.5t66 -95t23 -121.5q0 -66 -23 -120.5t-66 -94.5t-103.5 -61t-135.5 -21zM364 106q35 0 63 13.5t48 38t30.5 58.5t10.5 74q0 42 -10.5 75
t-30.5 57.5t-48 37t-63 12.5t-62.5 -13t-47.5 -37t-30.5 -57.5t-10.5 -74.5t10.5 -74.5t30.5 -58t47.5 -38t62.5 -13.5zM436 648q-28 0 -55.5 11.5t-51.5 23t-42 11.5q-36 0 -40 -41h-70q7 79 39.5 111.5t76.5 32.5q27 0 54.5 -11t51.5 -23t41 -12q18 0 28.5 10t13.5 31h69
q-6 -77 -38 -110.5t-77 -33.5zM241 848q-32 0 -55.5 19t-23.5 56t23.5 56.5t55.5 19.5t55.5 -19.5t23.5 -56.5t-23.5 -56t-55.5 -19zM487 848q-32 0 -55 19t-23 56t23 56.5t55 19.5t55.5 -19.5t23.5 -56.5t-23.5 -56t-55.5 -19z" />
    <glyph glyph-name="uni1E4F" unicode="&#x1e4f;" horiz-adv-x="482" 
d="M241 -11q-67 0 -117 26.5t-78 74.5t-28 111t28 110t78 73.5t117 26.5t117 -26.5t78 -73.5t28 -110t-28 -111t-78 -74.5t-117 -26.5zM241 101q26 0 45.5 12t29.5 34.5t10 53.5t-10 53t-29.5 34t-45.5 12q-27 0 -45.5 -12t-29 -34t-10.5 -53t10.5 -53.5t29 -34.5t45.5 -12z
M313 471q-28 0 -55.5 11.5t-51.5 23t-42 11.5q-36 0 -40 -41h-70q7 79 39.5 111.5t76.5 32.5q27 0 54.5 -11t51.5 -23t41 -12q18 0 28.5 10t13.5 31h69q-6 -77 -38 -110.5t-77 -33.5zM118 671q-32 0 -55.5 19t-23.5 56t23.5 56.5t55.5 19.5t55.5 -19.5t23.5 -56.5t-23.5 -56
t-55.5 -19zM364 671q-32 0 -55 19t-23 56t23 56.5t55 19.5t55.5 -19.5t23.5 -56.5t-23.5 -56t-55.5 -19z" />
    <glyph glyph-name="uni1E50" unicode="&#x1e50;" horiz-adv-x="729" 
d="M364 -10q-74 0 -134.5 21t-103.5 61t-66.5 94t-23.5 121q0 66 23.5 121t66.5 95.5t103.5 62.5t134.5 22t135 -22t104 -62.5t66 -95t23 -121.5q0 -66 -23 -120.5t-66 -94.5t-103.5 -61t-135.5 -21zM364 106q35 0 63 13.5t48 38t30.5 58.5t10.5 74q0 42 -10.5 75
t-30.5 57.5t-48 37t-63 12.5t-62.5 -13t-47.5 -37t-30.5 -57.5t-10.5 -74.5t10.5 -74.5t30.5 -58t47.5 -38t62.5 -13.5zM233 646v79h262v-79h-262zM319 786l-96 173h138l43 -173h-85z" />
    <glyph glyph-name="uni1E51" unicode="&#x1e51;" horiz-adv-x="482" 
d="M241 -11q-67 0 -117 26.5t-78 74.5t-28 111t28 110t78 73.5t117 26.5t117 -26.5t78 -73.5t28 -110t-28 -111t-78 -74.5t-117 -26.5zM241 101q26 0 45.5 12t29.5 34.5t10 53.5t-10 53t-29.5 34t-45.5 12q-27 0 -45.5 -12t-29 -34t-10.5 -53t10.5 -53.5t29 -34.5t45.5 -12z
M110 469v79h262v-79h-262zM196 609l-96 173h138l43 -173h-85z" />
    <glyph glyph-name="uni1E52" unicode="&#x1e52;" horiz-adv-x="729" 
d="M364 -10q-74 0 -134.5 21t-103.5 61t-66.5 94t-23.5 121q0 66 23.5 121t66.5 95.5t103.5 62.5t134.5 22t135 -22t104 -62.5t66 -95t23 -121.5q0 -66 -23 -120.5t-66 -94.5t-103.5 -61t-135.5 -21zM364 106q35 0 63 13.5t48 38t30.5 58.5t10.5 74q0 42 -10.5 75
t-30.5 57.5t-48 37t-63 12.5t-62.5 -13t-47.5 -37t-30.5 -57.5t-10.5 -74.5t10.5 -74.5t30.5 -58t47.5 -38t62.5 -13.5zM233 646v79h262v-79h-262zM322 786l43 173h138l-97 -173h-84z" />
    <glyph glyph-name="uni1E53" unicode="&#x1e53;" horiz-adv-x="482" 
d="M241 -11q-67 0 -117 26.5t-78 74.5t-28 111t28 110t78 73.5t117 26.5t117 -26.5t78 -73.5t28 -110t-28 -111t-78 -74.5t-117 -26.5zM241 101q26 0 45.5 12t29.5 34.5t10 53.5t-10 53t-29.5 34t-45.5 12q-27 0 -45.5 -12t-29 -34t-10.5 -53t10.5 -53.5t29 -34.5t45.5 -12z
M110 469v79h262v-79h-262zM199 609l43 173h138l-97 -173h-84z" />
    <glyph glyph-name="uni1E56" unicode="&#x1e56;" horiz-adv-x="630" 
d="M47 0v102h57v373h-57v103h314q120 0 183.5 -40.5t63.5 -133.5q0 -94 -60 -136.5t-173 -42.5h-63v102h40q39 0 60.5 19t21.5 56q0 36 -20 54.5t-58 18.5h-82v-373h64v-102h-291zM323 655q-37 0 -60 22t-23 58q0 35 23 57t60 22q38 0 60 -21.5t22 -57.5q1 -35 -21.5 -57.5
t-60.5 -22.5z" />
    <glyph glyph-name="uni1E57" unicode="&#x1e57;" horiz-adv-x="531" 
d="M12 -167v88h51v392h-50v87h187l4 -45l-39 -21q32 35 72.5 55.5t92.5 20.5q58 0 98.5 -26t62 -72t21.5 -109q0 -65 -24 -113t-66 -74t-96 -26q-32 0 -58.5 7.5t-46.5 20t-31 28.5l22 19v-144h64v-88h-264zM271 100q39 0 63.5 26t24.5 74q0 45 -23 72.5t-62 27.5
q-16 0 -31.5 -5.5t-30 -15t-27.5 -25.5l27 56v-213l-22 37q15 -17 36.5 -25.5t44.5 -8.5zM280 478q-37 0 -60 22t-23 58q0 35 23 57t60 22q38 0 60 -21.5t22 -57.5q1 -35 -21.5 -57.5t-60.5 -22.5z" />
    <glyph glyph-name="uni1E5A" unicode="&#x1e5a;" horiz-adv-x="705" 
d="M47 0v102h57v373h-57v103h349q70 0 124 -17.5t85 -54.5t31 -100q0 -39 -14 -69t-40 -50.5t-64 -32.5l95 -151h58v-103h-183l-133 234h-42v103h71q28 0 45 9.5t25.5 26t8.5 38.5q0 19 -8.5 33.5t-25.5 22.5t-41 8h-114v-373h54v-102h-281zM362 -194q-34 0 -54.5 19.5
t-20.5 49.5q0 31 20.5 50t54.5 19t54 -18.5t21 -50.5q1 -30 -20 -49.5t-55 -19.5z" />
    <glyph glyph-name="uni1E5B" unicode="&#x1e5b;" horiz-adv-x="410" 
d="M20 0v88h52v225h-52v87h200v-123l-17 -1q16 53 36.5 81.5t44 40t46.5 11.5q21 0 40 -4.5t36 -13.5l-31 -120q-15 9 -36.5 15t-45.5 6q-25 0 -49 -15t-24 -51v-138h57v-88h-257zM145 -194q-34 0 -54.5 19.5t-20.5 49.5q0 31 20.5 50t54.5 19t54 -18.5t21 -50.5
q1 -30 -20 -49.5t-55 -19.5z" />
    <glyph glyph-name="uni1E5E" unicode="&#x1e5e;" horiz-adv-x="705" 
d="M47 0v102h57v373h-57v103h349q70 0 124 -17.5t85 -54.5t31 -100q0 -39 -14 -69t-40 -50.5t-64 -32.5l95 -151h58v-103h-183l-133 234h-42v103h71q28 0 45 9.5t25.5 26t8.5 38.5q0 19 -8.5 33.5t-25.5 22.5t-41 8h-114v-373h54v-102h-281zM231 -154v79h262v-79h-262z" />
    <glyph glyph-name="uni1E5F" unicode="&#x1e5f;" horiz-adv-x="410" 
d="M20 0v88h52v225h-52v87h200v-123l-17 -1q16 53 36.5 81.5t44 40t46.5 11.5q21 0 40 -4.5t36 -13.5l-31 -120q-15 9 -36.5 15t-45.5 6q-25 0 -49 -15t-24 -51v-138h57v-88h-257zM14 -154v79h262v-79h-262z" />
    <glyph glyph-name="uni1E60" unicode="&#x1e60;" horiz-adv-x="591" 
d="M351 -10q-42 0 -85 13t-76 38t-44 60h22v-101h-112v197h100q14 -33 38 -58t56 -39t71 -14q33 0 52.5 14.5t19.5 43.5q0 21 -9 34.5t-29.5 22t-53.5 15.5l-66 13q-93 20 -138.5 65t-45.5 122q0 51 24 90t67.5 60.5t101.5 21.5q68 0 117 -24t79 -69h-23v83h105v-169h-96
q-10 20 -28.5 39t-45.5 31.5t-65 12.5q-32 0 -50 -13.5t-18 -38.5q0 -28 25 -44t81 -27l35 -7q66 -12 108 -35.5t62.5 -61t20.5 -92.5q0 -57 -25 -97.5t-69.5 -63t-105.5 -22.5zM317 655q-37 0 -60 22t-23 58q0 35 23 57t60 22q38 0 60 -21.5t22 -57.5q1 -35 -21.5 -57.5
t-60.5 -22.5z" />
    <glyph glyph-name="uni1E61" unicode="&#x1e61;" 
d="M267 -10q-36 0 -68 8.5t-55 25t-34 37.5l28 2v-63h-93v132h87l5 -54l-26 37q22 -21 52 -34t63 -13q25 0 39 9t14 25q0 20 -16 29.5t-52 17.5l-36 7q-70 16 -100.5 45.5t-30.5 82.5q0 59 41.5 92.5t108.5 33.5q35 0 64.5 -9t49 -23.5t25.5 -30.5l-31 -2v56h93v-126h-87
l-7 63l23 -39q-8 11 -23.5 19t-34.5 12.5t-37 4.5q-21 0 -35 -8.5t-14 -25.5q0 -16 13 -24t36 -14l42 -8q47 -10 78.5 -26.5t48 -43t16.5 -68.5t-19.5 -70t-53 -42.5t-74.5 -14.5zM233 478q-37 0 -60 22t-23 58q0 35 23 57t60 22q38 0 60 -21.5t22 -57.5q1 -35 -21.5 -57.5
t-60.5 -22.5z" />
    <glyph glyph-name="uni1E62" unicode="&#x1e62;" horiz-adv-x="591" 
d="M351 -10q-42 0 -85 13t-76 38t-44 60h22v-101h-112v197h100q14 -33 38 -58t56 -39t71 -14q33 0 52.5 14.5t19.5 43.5q0 21 -9 34.5t-29.5 22t-53.5 15.5l-66 13q-93 20 -138.5 65t-45.5 122q0 51 24 90t67.5 60.5t101.5 21.5q68 0 117 -24t79 -69h-23v83h105v-169h-96
q-10 20 -28.5 39t-45.5 31.5t-65 12.5q-32 0 -50 -13.5t-18 -38.5q0 -28 25 -44t81 -27l35 -7q66 -12 108 -35.5t62.5 -61t20.5 -92.5q0 -57 -25 -97.5t-69.5 -63t-105.5 -22.5zM316 -194q-34 0 -54.5 19.5t-20.5 49.5q0 31 20.5 50t54.5 19t54 -18.5t21 -50.5
q1 -30 -20 -49.5t-55 -19.5z" />
    <glyph glyph-name="uni1E63" unicode="&#x1e63;" 
d="M267 -10q-36 0 -68 8.5t-55 25t-34 37.5l28 2v-63h-93v132h87l5 -54l-26 37q22 -21 52 -34t63 -13q25 0 39 9t14 25q0 20 -16 29.5t-52 17.5l-36 7q-70 16 -100.5 45.5t-30.5 82.5q0 59 41.5 92.5t108.5 33.5q35 0 64.5 -9t49 -23.5t25.5 -30.5l-31 -2v56h93v-126h-87
l-7 63l23 -39q-8 11 -23.5 19t-34.5 12.5t-37 4.5q-21 0 -35 -8.5t-14 -25.5q0 -16 13 -24t36 -14l42 -8q47 -10 78.5 -26.5t48 -43t16.5 -68.5t-19.5 -70t-53 -42.5t-74.5 -14.5zM246 -194q-34 0 -54.5 19.5t-20.5 49.5q0 31 20.5 50t54.5 19t54 -18.5t21 -50.5
q1 -30 -20 -49.5t-55 -19.5z" />
    <glyph glyph-name="uni1E64" unicode="&#x1e64;" horiz-adv-x="591" 
d="M351 -10q-42 0 -85 13t-76 38t-44 60h22v-101h-112v197h100q14 -33 38 -58t56 -39t71 -14q33 0 52.5 14.5t19.5 43.5q0 21 -9 34.5t-29.5 22t-53.5 15.5l-66 13q-93 20 -138.5 65t-45.5 122q0 51 24 90t67.5 60.5t101.5 21.5q68 0 117 -24t79 -69h-23v83h105v-169h-96
q-10 20 -28.5 39t-45.5 31.5t-65 12.5q-32 0 -50 -13.5t-18 -38.5q0 -28 25 -44t81 -27l35 -7q66 -12 108 -35.5t62.5 -61t20.5 -92.5q0 -57 -25 -97.5t-69.5 -63t-105.5 -22.5zM275 641l43 173h138l-97 -173h-84zM317 911q-37 0 -60 22t-23 58q0 35 23 57t60 22
q38 0 60 -21.5t22 -57.5q1 -35 -21.5 -57.5t-60.5 -22.5z" />
    <glyph glyph-name="uni1E65" unicode="&#x1e65;" 
d="M267 -10q-36 0 -68 8.5t-55 25t-34 37.5l28 2v-63h-93v132h87l5 -54l-26 37q22 -21 52 -34t63 -13q25 0 39 9t14 25q0 20 -16 29.5t-52 17.5l-36 7q-70 16 -100.5 45.5t-30.5 82.5q0 59 41.5 92.5t108.5 33.5q35 0 64.5 -9t49 -23.5t25.5 -30.5l-31 -2v56h93v-126h-87
l-7 63l23 -39q-8 11 -23.5 19t-34.5 12.5t-37 4.5q-21 0 -35 -8.5t-14 -25.5q0 -16 13 -24t36 -14l42 -8q47 -10 78.5 -26.5t48 -43t16.5 -68.5t-19.5 -70t-53 -42.5t-74.5 -14.5zM190 464l43 173h138l-97 -173h-84zM232 733q-37 0 -60 22t-23 58q0 35 23 57t60 22
q38 0 60 -21.5t22 -57.5q1 -35 -21.5 -57.5t-60.5 -22.5z" />
    <glyph glyph-name="uni1E66" unicode="&#x1e66;" horiz-adv-x="591" 
d="M351 -10q-42 0 -85 13t-76 38t-44 60h22v-101h-112v197h100q14 -33 38 -58t56 -39t71 -14q33 0 52.5 14.5t19.5 43.5q0 21 -9 34.5t-29.5 22t-53.5 15.5l-66 13q-93 20 -138.5 65t-45.5 122q0 51 24 90t67.5 60.5t101.5 21.5q68 0 117 -24t79 -69h-23v83h105v-169h-96
q-10 20 -28.5 39t-45.5 31.5t-65 12.5q-32 0 -50 -13.5t-18 -38.5q0 -28 25 -44t81 -27l35 -7q66 -12 108 -35.5t62.5 -61t20.5 -92.5q0 -57 -25 -97.5t-69.5 -63t-105.5 -22.5zM241 638l-78 174h98l60 -113l60 113h89l-69 -174h-160zM317 883q-37 0 -60 22t-23 58
q0 35 23 57t60 22q38 0 60 -21.5t22 -57.5q1 -35 -21.5 -57.5t-60.5 -22.5z" />
    <glyph glyph-name="uni1E67" unicode="&#x1e67;" 
d="M267 -10q-36 0 -68 8.5t-55 25t-34 37.5l28 2v-63h-93v132h87l5 -54l-26 37q22 -21 52 -34t63 -13q25 0 39 9t14 25q0 20 -16 29.5t-52 17.5l-36 7q-70 16 -100.5 45.5t-30.5 82.5q0 59 41.5 92.5t108.5 33.5q35 0 64.5 -9t49 -23.5t25.5 -30.5l-31 -2v56h93v-126h-87
l-7 63l23 -39q-8 11 -23.5 19t-34.5 12.5t-37 4.5q-21 0 -35 -8.5t-14 -25.5q0 -16 13 -24t36 -14l42 -8q47 -10 78.5 -26.5t48 -43t16.5 -68.5t-19.5 -70t-53 -42.5t-74.5 -14.5zM156 461l-78 174h98l60 -113l60 113h89l-69 -174h-160zM232 705q-37 0 -60 22t-23 58
q0 35 23 57t60 22q38 0 60 -21.5t22 -57.5q1 -35 -21.5 -57.5t-60.5 -22.5z" />
    <glyph glyph-name="uni1E68" unicode="&#x1e68;" horiz-adv-x="591" 
d="M351 -10q-42 0 -85 13t-76 38t-44 60h22v-101h-112v197h100q14 -33 38 -58t56 -39t71 -14q33 0 52.5 14.5t19.5 43.5q0 21 -9 34.5t-29.5 22t-53.5 15.5l-66 13q-93 20 -138.5 65t-45.5 122q0 51 24 90t67.5 60.5t101.5 21.5q68 0 117 -24t79 -69h-23v83h105v-169h-96
q-10 20 -28.5 39t-45.5 31.5t-65 12.5q-32 0 -50 -13.5t-18 -38.5q0 -28 25 -44t81 -27l35 -7q66 -12 108 -35.5t62.5 -61t20.5 -92.5q0 -57 -25 -97.5t-69.5 -63t-105.5 -22.5zM316 -194q-34 0 -54.5 19.5t-20.5 49.5q0 31 20.5 50t54.5 19t54 -18.5t21 -50.5
q1 -30 -20 -49.5t-55 -19.5zM317 655q-37 0 -60 22t-23 58q0 35 23 57t60 22q38 0 60 -21.5t22 -57.5q1 -35 -21.5 -57.5t-60.5 -22.5z" />
    <glyph glyph-name="uni1E69" unicode="&#x1e69;" 
d="M267 -10q-36 0 -68 8.5t-55 25t-34 37.5l28 2v-63h-93v132h87l5 -54l-26 37q22 -21 52 -34t63 -13q25 0 39 9t14 25q0 20 -16 29.5t-52 17.5l-36 7q-70 16 -100.5 45.5t-30.5 82.5q0 59 41.5 92.5t108.5 33.5q35 0 64.5 -9t49 -23.5t25.5 -30.5l-31 -2v56h93v-126h-87
l-7 63l23 -39q-8 11 -23.5 19t-34.5 12.5t-37 4.5q-21 0 -35 -8.5t-14 -25.5q0 -16 13 -24t36 -14l42 -8q47 -10 78.5 -26.5t48 -43t16.5 -68.5t-19.5 -70t-53 -42.5t-74.5 -14.5zM246 -194q-34 0 -54.5 19.5t-20.5 49.5q0 31 20.5 50t54.5 19t54 -18.5t21 -50.5
q1 -30 -20 -49.5t-55 -19.5zM232 478q-37 0 -60 22t-23 58q0 35 23 57t60 22q38 0 60 -21.5t22 -57.5q1 -35 -21.5 -57.5t-60.5 -22.5z" />
    <glyph glyph-name="uni1E6A" unicode="&#x1e6a;" horiz-adv-x="642" 
d="M172 0v102h65v376h-102v-114h-109v214h590v-214h-109v114h-101v-376h65v-102h-299zM321 655q-37 0 -60 22t-23 58q0 35 23 57t60 22q38 0 60 -21.5t22 -57.5q1 -35 -21.5 -57.5t-60.5 -22.5z" />
    <glyph glyph-name="uni1E6B" unicode="&#x1e6b;" horiz-adv-x="328" 
d="M195 0q-62 0 -95.5 28.5t-33.5 90.5v194h-50v87h49v130l149 25v-155h90v-87h-90v-169q0 -29 10.5 -41t36.5 -12h46v-91h-112zM141 606q-37 0 -60 22t-23 58q0 35 23 57t60 22q38 0 60 -21.5t22 -57.5q1 -35 -21.5 -57.5t-60.5 -22.5z" />
    <glyph glyph-name="uni1E6C" unicode="&#x1e6c;" horiz-adv-x="642" 
d="M172 0v102h65v376h-102v-114h-109v214h590v-214h-109v114h-101v-376h65v-102h-299zM322 -194q-34 0 -54.5 19.5t-20.5 49.5q0 31 20.5 50t54.5 19t54 -18.5t21 -50.5q1 -30 -20 -49.5t-55 -19.5z" />
    <glyph glyph-name="uni1E6D" unicode="&#x1e6d;" horiz-adv-x="328" 
d="M195 0q-62 0 -95.5 28.5t-33.5 90.5v194h-50v87h49v130l149 25v-155h90v-87h-90v-169q0 -29 10.5 -41t36.5 -12h46v-91h-112zM204 -194q-34 0 -54.5 19.5t-20.5 49.5q0 31 20.5 50t54.5 19t54 -18.5t21 -50.5q1 -30 -20 -49.5t-55 -19.5z" />
    <glyph glyph-name="uni1E6E" unicode="&#x1e6e;" horiz-adv-x="642" 
d="M172 0v102h65v376h-102v-114h-109v214h590v-214h-109v114h-101v-376h65v-102h-299zM191 -154v79h262v-79h-262z" />
    <glyph glyph-name="uni1E6F" unicode="&#x1e6f;" horiz-adv-x="328" 
d="M195 0q-62 0 -95.5 28.5t-33.5 90.5v194h-50v87h49v130l149 25v-155h90v-87h-90v-169q0 -29 10.5 -41t36.5 -12h46v-91h-112zM73 -154v79h262v-79h-262z" />
    <glyph glyph-name="uni1E78" unicode="&#x1e78;" horiz-adv-x="693" 
d="M352 -11q-86 0 -144.5 25.5t-88.5 75t-30 121.5v264h-57v103h288v-103h-62v-265q0 -37 12.5 -63t36.5 -39.5t59 -13.5q36 0 61 13.5t38 39.5t13 63v265h-48v103h233v-103h-57v-263q0 -73 -29 -122.5t-85.5 -75t-139.5 -25.5zM433 648q-28 0 -55.5 11.5t-51.5 23t-42 11.5
q-36 0 -40 -41h-70q7 79 39.5 111.5t76.5 32.5q27 0 54.5 -11t51.5 -23t41 -12q18 0 28.5 10t13.5 31h69q-6 -77 -38 -110.5t-77 -33.5zM319 834l43 173h138l-97 -173h-84z" />
    <glyph glyph-name="uni1E79" unicode="&#x1e79;" horiz-adv-x="540" 
d="M197 -10q-46 0 -76.5 19t-45.5 51t-15 70v183h-50v87h199v-248q0 -29 13.5 -45.5t39.5 -16.5q25 0 49.5 12t45.5 33l-30 -64v242h-44v87h192v-312h52v-88h-188l-5 52l37 14q-39 -35 -82 -55.5t-92 -20.5zM327 471q-28 0 -55.5 11.5t-51.5 23t-42 11.5q-36 0 -40 -41h-70
q7 79 39.5 111.5t76.5 32.5q27 0 54.5 -11t51.5 -23t41 -12q18 0 28.5 10t13.5 31h69q-6 -77 -38 -110.5t-77 -33.5zM213 657l43 173h138l-97 -173h-84z" />
    <glyph glyph-name="uni1E7A" unicode="&#x1e7a;" horiz-adv-x="693" 
d="M352 -11q-86 0 -144.5 25.5t-88.5 75t-30 121.5v264h-57v103h288v-103h-62v-265q0 -37 12.5 -63t36.5 -39.5t59 -13.5q36 0 61 13.5t38 39.5t13 63v265h-48v103h233v-103h-57v-263q0 -73 -29 -122.5t-85.5 -75t-139.5 -25.5zM230 646v79h262v-79h-262zM238 800
q-32 0 -55.5 19t-23.5 56t23.5 56.5t55.5 19.5t55.5 -19.5t23.5 -56.5t-23.5 -56t-55.5 -19zM484 800q-32 0 -55 19t-23 56t23 56.5t55 19.5t55.5 -19.5t23.5 -56.5t-23.5 -56t-55.5 -19z" />
    <glyph glyph-name="uni1E7B" unicode="&#x1e7b;" horiz-adv-x="540" 
d="M197 -10q-46 0 -76.5 19t-45.5 51t-15 70v183h-50v87h199v-248q0 -29 13.5 -45.5t39.5 -16.5q25 0 49.5 12t45.5 33l-30 -64v242h-44v87h192v-312h52v-88h-188l-5 52l37 14q-39 -35 -82 -55.5t-92 -20.5zM124 469v79h262v-79h-262zM132 623q-32 0 -55.5 19t-23.5 56
t23.5 56.5t55.5 19.5t55.5 -19.5t23.5 -56.5t-23.5 -56t-55.5 -19zM378 623q-32 0 -55 19t-23 56t23 56.5t55 19.5t55.5 -19.5t23.5 -56.5t-23.5 -56t-55.5 -19z" />
    <glyph glyph-name="Wgrave" unicode="&#x1e80;" horiz-adv-x="913" 
d="M232 0l-163 475h-52v103h254v-103h-55l76 -251l120 336h104l117 -336l82 251h-62v103h244v-103h-53l-155 -475h-107l-122 332l-122 -332h-106zM419 624l-96 173h138l43 -173h-85z" />
    <glyph glyph-name="wgrave" unicode="&#x1e81;" horiz-adv-x="711" 
d="M149 0l-111 313h-36v87h205v-87h-36l62 -192l63 192h-37v87h195v-87h-37l64 -192l59 192h-37v87h205v-87h-37l-115 -313h-131l-71 202l-72 -202h-133zM312 464l-96 173h138l43 -173h-85z" />
    <glyph glyph-name="Wacute" unicode="&#x1e82;" horiz-adv-x="913" 
d="M232 0l-163 475h-52v103h254v-103h-55l76 -251l120 336h104l117 -336l82 251h-62v103h244v-103h-53l-155 -475h-107l-122 332l-122 -332h-106zM422 624l43 173h138l-97 -173h-84z" />
    <glyph glyph-name="wacute" unicode="&#x1e83;" horiz-adv-x="711" 
d="M149 0l-111 313h-36v87h205v-87h-36l62 -192l63 192h-37v87h195v-87h-37l64 -192l59 192h-37v87h205v-87h-37l-115 -313h-131l-71 202l-72 -202h-133zM315 464l43 173h138l-97 -173h-84z" />
    <glyph glyph-name="Wdieresis" unicode="&#x1e84;" horiz-adv-x="913" 
d="M232 0l-163 475h-52v103h254v-103h-55l76 -251l120 336h104l117 -336l82 251h-62v103h244v-103h-53l-155 -475h-107l-122 332l-122 -332h-106zM341 638q-32 0 -55.5 19t-23.5 56t23.5 56.5t55.5 19.5t55.5 -19.5t23.5 -56.5t-23.5 -56t-55.5 -19zM587 638q-32 0 -55 19
t-23 56t23 56.5t55 19.5t55.5 -19.5t23.5 -56.5t-23.5 -56t-55.5 -19z" />
    <glyph glyph-name="wdieresis" unicode="&#x1e85;" horiz-adv-x="711" 
d="M149 0l-111 313h-36v87h205v-87h-36l62 -192l63 192h-37v87h195v-87h-37l64 -192l59 192h-37v87h205v-87h-37l-115 -313h-131l-71 202l-72 -202h-133zM234 478q-32 0 -55.5 19t-23.5 56t23.5 56.5t55.5 19.5t55.5 -19.5t23.5 -56.5t-23.5 -56t-55.5 -19zM480 478
q-32 0 -55 19t-23 56t23 56.5t55 19.5t55.5 -19.5t23.5 -56.5t-23.5 -56t-55.5 -19z" />
    <glyph glyph-name="uni1E8E" unicode="&#x1e8e;" horiz-adv-x="673" 
d="M190 0v102h66v114l-188 259h-57v103h304v-103h-62l106 -158l105 158h-63v103h261v-103h-58l-179 -259v-114h66v-102h-301zM358 655q-37 0 -60 22t-23 58q0 35 23 57t60 22q38 0 60 -21.5t22 -57.5q1 -35 -21.5 -57.5t-60.5 -22.5z" />
    <glyph glyph-name="uni1E8F" unicode="&#x1e8f;" horiz-adv-x="523" 
d="M89 -169v108h36q24 0 40 4.5t28 15.5t22 32l17 35h-40l-149 287h-41v87h241v-87h-48l83 -178l78 178h-50v87h217v-87h-39l-167 -340q-25 -49 -45.5 -80.5t-51 -46.5t-85.5 -15h-46zM275 478q-37 0 -60 22t-23 58q0 35 23 57t60 22q38 0 60 -21.5t22 -57.5
q1 -35 -21.5 -57.5t-60.5 -22.5z" />
    <glyph glyph-name="uni1E92" unicode="&#x1e92;" horiz-adv-x="592" 
d="M40 0v81l278 397h-162v-111h-109v211h499v-80l-280 -399h177v124h112v-223h-515zM297 -194q-34 0 -54.5 19.5t-20.5 49.5q0 31 20.5 50t54.5 19t54 -18.5t21 -50.5q1 -30 -20 -49.5t-55 -19.5z" />
    <glyph glyph-name="uni1E93" unicode="&#x1e93;" horiz-adv-x="455" 
d="M31 0v73l215 244h-125v-74h-89v157h386v-73l-218 -245h137v85h89v-167h-395zM229 -194q-34 0 -54.5 19.5t-20.5 49.5q0 31 20.5 50t54.5 19t54 -18.5t21 -50.5q1 -30 -20 -49.5t-55 -19.5z" />
    <glyph glyph-name="uni1E97" unicode="&#x1e97;" horiz-adv-x="328" 
d="M195 0q-62 0 -95.5 28.5t-33.5 90.5v194h-50v87h49v130l149 25v-155h90v-87h-90v-169q0 -29 10.5 -41t36.5 -12h46v-91h-112zM17 606q-32 0 -55.5 19t-23.5 56t23.5 56.5t55.5 19.5t55.5 -19.5t23.5 -56.5t-23.5 -56t-55.5 -19zM263 606q-32 0 -55 19t-23 56t23 56.5
t55 19.5t55.5 -19.5t23.5 -56.5t-23.5 -56t-55.5 -19z" />
    <glyph glyph-name="uni1E9E" unicode="&#x1e9e;" horiz-adv-x="647" 
d="M381 -10v117q41 5 59.5 24t18.5 50q0 44 -37 65t-103 21v56l112 141q-16 6 -34 9t-41 3q-45 0 -70.5 -22.5t-25.5 -70.5v-281h56v-102h-270v102h50v273q0 103 60.5 158t188.5 55q63 0 117 -13.5t92 -34.5v-99l-95 -119q72 -13 114 -51.5t42 -112.5q0 -60 -28.5 -97
t-81 -54t-124.5 -17z" />
    <glyph glyph-name="uni1EA0" unicode="&#x1ea0;" horiz-adv-x="730" 
d="M22 0v102h59l141 373h-56v103h398v-103h-57l143 -373h58v-102h-294v102h64l-33 102h-179l-33 -102h56v-102h-267zM296 300h120l-55 175h-6zM352 -194q-34 0 -54.5 19.5t-20.5 49.5q0 31 20.5 50t54.5 19t54 -18.5t21 -50.5q1 -30 -20 -49.5t-55 -19.5z" />
    <glyph glyph-name="uni1EA1" unicode="&#x1ea1;" horiz-adv-x="483" 
d="M164 -10q-61 0 -97 32t-36 85q0 45 22.5 72.5t59 39.5t77.5 12q34 0 63 -6t48 -15l-23 -5v33q0 38 -19.5 56.5t-56.5 18.5q-28 0 -59.5 -8t-72.5 -26l-33 85q50 23 100 34.5t101 11.5q59 0 100.5 -19.5t63 -56t21.5 -87.5v-159h48v-88h-170l-20 62h36q-33 -36 -70 -54
t-83 -18zM215 67q21 0 42 10t40 33l-19 -37v97l19 -21q-14 8 -32.5 13t-40.5 5q-24 0 -42.5 -11.5t-18.5 -39.5q0 -23 13.5 -36t38.5 -13zM257 -194q-34 0 -54.5 19.5t-20.5 49.5q0 31 20.5 50t54.5 19t54 -18.5t21 -50.5q1 -30 -20 -49.5t-55 -19.5z" />
    <glyph glyph-name="uni1EA2" unicode="&#x1ea2;" horiz-adv-x="730" 
d="M22 0v102h59l141 373h-56v103h398v-103h-57l143 -373h58v-102h-294v102h64l-33 102h-179l-33 -102h56v-102h-267zM296 300h120l-55 175h-6zM359 621l-14 44q15 7 24 15.5t9 22.5q0 16 -11 24t-30 8q-15 0 -29.5 -4.5t-27.5 -12.5l-17 49q18 15 42.5 24.5t52.5 9.5
q43 0 69 -22t26 -60t-24.5 -62.5t-69.5 -35.5z" />
    <glyph glyph-name="uni1EA3" unicode="&#x1ea3;" horiz-adv-x="483" 
d="M164 -10q-61 0 -97 32t-36 85q0 45 22.5 72.5t59 39.5t77.5 12q34 0 63 -6t48 -15l-23 -5v33q0 38 -19.5 56.5t-56.5 18.5q-28 0 -59.5 -8t-72.5 -26l-33 85q50 23 100 34.5t101 11.5q59 0 100.5 -19.5t63 -56t21.5 -87.5v-159h48v-88h-170l-20 62h36q-33 -36 -70 -54
t-83 -18zM215 67q21 0 42 10t40 33l-19 -37v97l19 -21q-14 8 -32.5 13t-40.5 5q-24 0 -42.5 -11.5t-18.5 -39.5q0 -23 13.5 -36t38.5 -13zM232 444l-14 44q15 7 24 15.5t9 22.5q0 16 -11 24t-30 8q-15 0 -29.5 -4.5t-27.5 -12.5l-17 49q18 15 42.5 24.5t52.5 9.5
q43 0 69 -22t26 -60t-24.5 -62.5t-69.5 -35.5z" />
    <glyph glyph-name="uni1EA4" unicode="&#x1ea4;" horiz-adv-x="730" 
d="M22 0v102h59l141 373h-56v103h398v-103h-57l143 -373h58v-102h-294v102h64l-33 102h-179l-33 -102h56v-102h-267zM296 300h120l-55 175h-6zM211 638l86 137h137l85 -137h-93l-61 77l-61 -77h-93zM494 731l43 136h108l-81 -136h-70z" />
    <glyph glyph-name="uni1EA5" unicode="&#x1ea5;" horiz-adv-x="483" 
d="M164 -10q-61 0 -97 32t-36 85q0 45 22.5 72.5t59 39.5t77.5 12q34 0 63 -6t48 -15l-23 -5v33q0 38 -19.5 56.5t-56.5 18.5q-28 0 -59.5 -8t-72.5 -26l-33 85q50 23 100 34.5t101 11.5q59 0 100.5 -19.5t63 -56t21.5 -87.5v-159h48v-88h-170l-20 62h36q-33 -36 -70 -54
t-83 -18zM215 67q21 0 42 10t40 33l-19 -37v97l19 -21q-14 8 -32.5 13t-40.5 5q-24 0 -42.5 -11.5t-18.5 -39.5q0 -23 13.5 -36t38.5 -13zM84 461l86 137h137l85 -137h-93l-61 77l-61 -77h-93zM367 554l43 136h108l-81 -136h-70z" />
    <glyph glyph-name="uni1EA6" unicode="&#x1ea6;" horiz-adv-x="730" 
d="M22 0v102h59l141 373h-56v103h398v-103h-57l143 -373h58v-102h-294v102h64l-33 102h-179l-33 -102h56v-102h-267zM296 300h120l-55 175h-6zM211 638l86 137h137l85 -137h-93l-61 77l-61 -77h-93zM595 731h-70l-81 136h108z" />
    <glyph glyph-name="uni1EA7" unicode="&#x1ea7;" horiz-adv-x="483" 
d="M164 -10q-61 0 -97 32t-36 85q0 45 22.5 72.5t59 39.5t77.5 12q34 0 63 -6t48 -15l-23 -5v33q0 38 -19.5 56.5t-56.5 18.5q-28 0 -59.5 -8t-72.5 -26l-33 85q50 23 100 34.5t101 11.5q59 0 100.5 -19.5t63 -56t21.5 -87.5v-159h48v-88h-170l-20 62h36q-33 -36 -70 -54
t-83 -18zM215 67q21 0 42 10t40 33l-19 -37v97l19 -21q-14 8 -32.5 13t-40.5 5q-24 0 -42.5 -11.5t-18.5 -39.5q0 -23 13.5 -36t38.5 -13zM84 461l86 137h137l85 -137h-93l-61 77l-61 -77h-93zM468 554h-70l-81 136h108z" />
    <glyph glyph-name="uni1EA8" unicode="&#x1ea8;" horiz-adv-x="730" 
d="M22 0v102h59l141 373h-56v103h398v-103h-57l143 -373h58v-102h-294v102h64l-33 102h-179l-33 -102h56v-102h-267zM296 300h120l-55 175h-6zM211 638l86 137h137l85 -137h-93l-61 77l-61 -77h-93zM510 715l-14 44q15 7 24 15.5t9 22.5q0 16 -11 24t-30 8q-15 0 -29.5 -4.5
t-27.5 -12.5l-16 49q18 15 42 24.5t52 9.5q43 0 69.5 -22t26.5 -60t-24.5 -62.5t-70.5 -35.5z" />
    <glyph glyph-name="uni1EA9" unicode="&#x1ea9;" horiz-adv-x="483" 
d="M164 -10q-61 0 -97 32t-36 85q0 45 22.5 72.5t59 39.5t77.5 12q34 0 63 -6t48 -15l-23 -5v33q0 38 -19.5 56.5t-56.5 18.5q-28 0 -59.5 -8t-72.5 -26l-33 85q50 23 100 34.5t101 11.5q59 0 100.5 -19.5t63 -56t21.5 -87.5v-159h48v-88h-170l-20 62h36q-33 -36 -70 -54
t-83 -18zM215 67q21 0 42 10t40 33l-19 -37v97l19 -21q-14 8 -32.5 13t-40.5 5q-24 0 -42.5 -11.5t-18.5 -39.5q0 -23 13.5 -36t38.5 -13zM84 461l86 137h137l85 -137h-93l-61 77l-61 -77h-93zM383 538l-14 44q15 7 24 15.5t9 22.5q0 16 -11 24t-30 8q-15 0 -29.5 -4.5
t-27.5 -12.5l-16 49q18 15 42 24.5t52 9.5q43 0 69.5 -22t26.5 -60t-24.5 -62.5t-70.5 -35.5z" />
    <glyph glyph-name="uni1EAA" unicode="&#x1eaa;" horiz-adv-x="730" 
d="M22 0v102h59l141 373h-56v103h398v-103h-57l143 -373h58v-102h-294v102h64l-33 102h-179l-33 -102h56v-102h-267zM296 300h120l-55 175h-6zM211 638l86 137h137l85 -137h-93l-61 77l-61 -77h-93zM440 815q-26 0 -49.5 10.5t-45 21t-42.5 10.5q-36 0 -40 -41h-70
q6 69 34 97t65 28q25 0 47.5 -10t44.5 -20.5t42 -10.5q18 0 29 8.5t13 27.5h69q-5 -63 -30.5 -92t-66.5 -29z" />
    <glyph glyph-name="uni1EAB" unicode="&#x1eab;" horiz-adv-x="483" 
d="M164 -10q-61 0 -97 32t-36 85q0 45 22.5 72.5t59 39.5t77.5 12q34 0 63 -6t48 -15l-23 -5v33q0 38 -19.5 56.5t-56.5 18.5q-28 0 -59.5 -8t-72.5 -26l-33 85q50 23 100 34.5t101 11.5q59 0 100.5 -19.5t63 -56t21.5 -87.5v-159h48v-88h-170l-20 62h36q-33 -36 -70 -54
t-83 -18zM215 67q21 0 42 10t40 33l-19 -37v97l19 -21q-14 8 -32.5 13t-40.5 5q-24 0 -42.5 -11.5t-18.5 -39.5q0 -23 13.5 -36t38.5 -13zM84 461l86 137h137l85 -137h-93l-61 77l-61 -77h-93zM313 638q-26 0 -49.5 10.5t-45 21t-42.5 10.5q-36 0 -40 -41h-70q6 69 34 97
t65 28q25 0 47.5 -10t44.5 -20.5t42 -10.5q18 0 29 8.5t13 27.5h69q-5 -63 -30.5 -92t-66.5 -29z" />
    <glyph glyph-name="uni1EAC" unicode="&#x1eac;" horiz-adv-x="730" 
d="M22 0v102h59l141 373h-56v103h398v-103h-57l143 -373h58v-102h-294v102h64l-33 102h-179l-33 -102h56v-102h-267zM296 300h120l-55 175h-6zM204 638l86 175h152l84 -175h-93l-68 114l-68 -114h-93zM352 -194q-34 0 -54.5 19.5t-20.5 49.5q0 31 20.5 50t54.5 19t54 -18.5
t21 -50.5q1 -30 -20 -49.5t-55 -19.5z" />
    <glyph glyph-name="uni1EAD" unicode="&#x1ead;" horiz-adv-x="483" 
d="M164 -10q-61 0 -97 32t-36 85q0 45 22.5 72.5t59 39.5t77.5 12q34 0 63 -6t48 -15l-23 -5v33q0 38 -19.5 56.5t-56.5 18.5q-28 0 -59.5 -8t-72.5 -26l-33 85q50 23 100 34.5t101 11.5q59 0 100.5 -19.5t63 -56t21.5 -87.5v-159h48v-88h-170l-20 62h36q-33 -36 -70 -54
t-83 -18zM215 67q21 0 42 10t40 33l-19 -37v97l19 -21q-14 8 -32.5 13t-40.5 5q-24 0 -42.5 -11.5t-18.5 -39.5q0 -23 13.5 -36t38.5 -13zM257 -194q-34 0 -54.5 19.5t-20.5 49.5q0 31 20.5 50t54.5 19t54 -18.5t21 -50.5q1 -30 -20 -49.5t-55 -19.5zM77 461l86 175h152
l84 -175h-93l-68 114l-68 -114h-93z" />
    <glyph glyph-name="uni1EAE" unicode="&#x1eae;" horiz-adv-x="730" 
d="M22 0v102h59l141 373h-56v103h398v-103h-57l143 -373h58v-102h-294v102h64l-33 102h-179l-33 -102h56v-102h-267zM296 300h120l-55 175h-6zM365 642q-75 0 -115.5 33t-44.5 95h89q5 -29 23.5 -44t47.5 -15q31 0 49.5 15t20.5 44h90q-6 -62 -46.5 -94.5t-113.5 -33.5z
M321 793l46 133h117l-91 -133h-72z" />
    <glyph glyph-name="uni1EAF" unicode="&#x1eaf;" horiz-adv-x="483" 
d="M164 -10q-61 0 -97 32t-36 85q0 45 22.5 72.5t59 39.5t77.5 12q34 0 63 -6t48 -15l-23 -5v33q0 38 -19.5 56.5t-56.5 18.5q-28 0 -59.5 -8t-72.5 -26l-33 85q50 23 100 34.5t101 11.5q59 0 100.5 -19.5t63 -56t21.5 -87.5v-159h48v-88h-170l-20 62h36q-33 -36 -70 -54
t-83 -18zM215 67q21 0 42 10t40 33l-19 -37v97l19 -21q-14 8 -32.5 13t-40.5 5q-24 0 -42.5 -11.5t-18.5 -39.5q0 -23 13.5 -36t38.5 -13zM238 465q-75 0 -115.5 33t-44.5 95h89q5 -29 23.5 -44t47.5 -15q31 0 49.5 15t20.5 44h90q-6 -62 -46.5 -94.5t-113.5 -33.5zM194 616
l46 133h117l-91 -133h-72z" />
    <glyph glyph-name="uni1EB0" unicode="&#x1eb0;" horiz-adv-x="730" 
d="M22 0v102h59l141 373h-56v103h398v-103h-57l143 -373h58v-102h-294v102h64l-33 102h-179l-33 -102h56v-102h-267zM296 300h120l-55 175h-6zM365 642q-75 0 -115.5 33t-44.5 95h89q5 -29 23.5 -44t47.5 -15q31 0 49.5 15t20.5 44h90q-6 -62 -46.5 -94.5t-113.5 -33.5z
M336 793l-90 133h117l45 -133h-72z" />
    <glyph glyph-name="uni1EB1" unicode="&#x1eb1;" horiz-adv-x="483" 
d="M164 -10q-61 0 -97 32t-36 85q0 45 22.5 72.5t59 39.5t77.5 12q34 0 63 -6t48 -15l-23 -5v33q0 38 -19.5 56.5t-56.5 18.5q-28 0 -59.5 -8t-72.5 -26l-33 85q50 23 100 34.5t101 11.5q59 0 100.5 -19.5t63 -56t21.5 -87.5v-159h48v-88h-170l-20 62h36q-33 -36 -70 -54
t-83 -18zM215 67q21 0 42 10t40 33l-19 -37v97l19 -21q-14 8 -32.5 13t-40.5 5q-24 0 -42.5 -11.5t-18.5 -39.5q0 -23 13.5 -36t38.5 -13zM238 465q-75 0 -115.5 33t-44.5 95h89q5 -29 23.5 -44t47.5 -15q31 0 49.5 15t20.5 44h90q-6 -62 -46.5 -94.5t-113.5 -33.5zM209 616
l-90 133h117l45 -133h-72z" />
    <glyph glyph-name="uni1EB2" unicode="&#x1eb2;" horiz-adv-x="730" 
d="M22 0v102h59l141 373h-56v103h398v-103h-57l143 -373h58v-102h-294v102h64l-33 102h-179l-33 -102h56v-102h-267zM296 300h120l-55 175h-6zM357 771l-14 44q15 6 24 15t9 23t-11 21.5t-30 7.5q-15 0 -29.5 -5t-27.5 -13l-16 50q18 14 42.5 24t51.5 10q43 0 69.5 -21.5
t26.5 -57.5q0 -38 -24.5 -62.5t-70.5 -35.5zM365 642q-75 0 -115.5 33t-44.5 95h89q5 -29 23.5 -44t47.5 -15q31 0 49.5 15t20.5 44h90q-6 -62 -46.5 -94.5t-113.5 -33.5z" />
    <glyph glyph-name="uni1EB3" unicode="&#x1eb3;" horiz-adv-x="483" 
d="M164 -10q-61 0 -97 32t-36 85q0 45 22.5 72.5t59 39.5t77.5 12q34 0 63 -6t48 -15l-23 -5v33q0 38 -19.5 56.5t-56.5 18.5q-28 0 -59.5 -8t-72.5 -26l-33 85q50 23 100 34.5t101 11.5q59 0 100.5 -19.5t63 -56t21.5 -87.5v-159h48v-88h-170l-20 62h36q-33 -36 -70 -54
t-83 -18zM215 67q21 0 42 10t40 33l-19 -37v97l19 -21q-14 8 -32.5 13t-40.5 5q-24 0 -42.5 -11.5t-18.5 -39.5q0 -23 13.5 -36t38.5 -13zM230 594l-14 44q15 6 24 15t9 23t-11 21.5t-30 7.5q-15 0 -29.5 -5t-27.5 -13l-16 50q18 14 42.5 24t51.5 10q43 0 69.5 -21.5
t26.5 -57.5q0 -38 -24.5 -62.5t-70.5 -35.5zM238 465q-75 0 -115.5 33t-44.5 95h89q5 -29 23.5 -44t47.5 -15q31 0 49.5 15t20.5 44h90q-6 -62 -46.5 -94.5t-113.5 -33.5z" />
    <glyph glyph-name="uni1EB4" unicode="&#x1eb4;" horiz-adv-x="730" 
d="M22 0v102h59l141 373h-56v103h398v-103h-57l143 -373h58v-102h-294v102h64l-33 102h-179l-33 -102h56v-102h-267zM296 300h120l-55 175h-6zM440 811q-29 0 -56.5 12t-52 23t-43.5 11q-36 0 -40 -40h-70q7 71 39 100t75 29q28 0 53.5 -11t49 -23t46.5 -12q18 0 28.5 10
t13.5 31h69q-6 -68 -35.5 -99t-76.5 -31zM365 642q-75 0 -115.5 33t-44.5 95h89q5 -29 23.5 -44t47.5 -15q31 0 49.5 15t20.5 44h90q-6 -62 -46.5 -94.5t-113.5 -33.5z" />
    <glyph glyph-name="uni1EB5" unicode="&#x1eb5;" horiz-adv-x="483" 
d="M164 -10q-61 0 -97 32t-36 85q0 45 22.5 72.5t59 39.5t77.5 12q34 0 63 -6t48 -15l-23 -5v33q0 38 -19.5 56.5t-56.5 18.5q-28 0 -59.5 -8t-72.5 -26l-33 85q50 23 100 34.5t101 11.5q59 0 100.5 -19.5t63 -56t21.5 -87.5v-159h48v-88h-170l-20 62h36q-33 -36 -70 -54
t-83 -18zM215 67q21 0 42 10t40 33l-19 -37v97l19 -21q-14 8 -32.5 13t-40.5 5q-24 0 -42.5 -11.5t-18.5 -39.5q0 -23 13.5 -36t38.5 -13zM313 634q-29 0 -56.5 12t-52 23t-43.5 11q-36 0 -40 -40h-70q7 71 39 100t75 29q28 0 53.5 -11t49 -23t46.5 -12q18 0 28.5 10
t13.5 31h69q-6 -68 -35.5 -99t-76.5 -31zM238 465q-75 0 -115.5 33t-44.5 95h89q5 -29 23.5 -44t47.5 -15q31 0 49.5 15t20.5 44h90q-6 -62 -46.5 -94.5t-113.5 -33.5z" />
    <glyph glyph-name="uni1EB6" unicode="&#x1eb6;" horiz-adv-x="730" 
d="M22 0v102h59l141 373h-56v103h398v-103h-57l143 -373h58v-102h-294v102h64l-33 102h-179l-33 -102h56v-102h-267zM296 300h120l-55 175h-6zM365 646q-75 0 -115.5 36.5t-44.5 105.5h97q9 -62 63 -62q27 0 43.5 16t19.5 46h97q-6 -69 -46.5 -105.5t-113.5 -36.5zM352 -194
q-34 0 -54.5 19.5t-20.5 49.5q0 31 20.5 50t54.5 19t54 -18.5t21 -50.5q1 -30 -20 -49.5t-55 -19.5z" />
    <glyph glyph-name="uni1EB7" unicode="&#x1eb7;" horiz-adv-x="483" 
d="M164 -10q-61 0 -97 32t-36 85q0 45 22.5 72.5t59 39.5t77.5 12q34 0 63 -6t48 -15l-23 -5v33q0 38 -19.5 56.5t-56.5 18.5q-28 0 -59.5 -8t-72.5 -26l-33 85q50 23 100 34.5t101 11.5q59 0 100.5 -19.5t63 -56t21.5 -87.5v-159h48v-88h-170l-20 62h36q-33 -36 -70 -54
t-83 -18zM215 67q21 0 42 10t40 33l-19 -37v97l19 -21q-14 8 -32.5 13t-40.5 5q-24 0 -42.5 -11.5t-18.5 -39.5q0 -23 13.5 -36t38.5 -13zM257 -194q-34 0 -54.5 19.5t-20.5 49.5q0 31 20.5 50t54.5 19t54 -18.5t21 -50.5q1 -30 -20 -49.5t-55 -19.5zM238 469
q-75 0 -115.5 36.5t-44.5 105.5h97q9 -62 63 -62q27 0 43.5 16t19.5 46h97q-6 -69 -46.5 -105.5t-113.5 -36.5z" />
    <glyph glyph-name="uni1EB8" unicode="&#x1eb8;" horiz-adv-x="651" 
d="M47 0v102h57v373h-57v103h547v-200h-105v97h-215v-132h90v58h84v-211h-84v58h-90v-145h219v107h105v-210h-551zM334 -194q-34 0 -54.5 19.5t-20.5 49.5q0 31 20.5 50t54.5 19t54 -18.5t21 -50.5q1 -30 -20 -49.5t-55 -19.5z" />
    <glyph glyph-name="uni1EB9" unicode="&#x1eb9;" 
d="M248 -11q-69 0 -120.5 25t-80.5 72.5t-29 113.5q0 63 28 110t77.5 74t113.5 27q63 0 107.5 -26.5t68 -73t23.5 -107.5v-27h-336l1 63h198q0 24 -7.5 40.5t-22.5 25.5t-37 9q-25 0 -42 -12.5t-25.5 -36t-8.5 -55.5q0 -37 14.5 -61.5t39.5 -37t58 -12.5q36 0 68 12t56 31
l41 -88q-34 -30 -81 -48t-104 -18zM258 -194q-34 0 -54.5 19.5t-20.5 49.5q0 31 20.5 50t54.5 19t54 -18.5t21 -50.5q1 -30 -20 -49.5t-55 -19.5z" />
    <glyph glyph-name="uni1EBA" unicode="&#x1eba;" horiz-adv-x="651" 
d="M47 0v102h57v373h-57v103h547v-200h-105v97h-215v-132h90v58h84v-211h-84v58h-90v-145h219v107h105v-210h-551zM338 621l-14 44q15 7 24 15.5t9 22.5q0 16 -11 24t-30 8q-15 0 -29.5 -4.5t-27.5 -12.5l-17 49q18 15 42.5 24.5t52.5 9.5q43 0 69 -22t26 -60t-24.5 -62.5
t-69.5 -35.5z" />
    <glyph glyph-name="uni1EBB" unicode="&#x1ebb;" 
d="M248 -11q-69 0 -120.5 25t-80.5 72.5t-29 113.5q0 63 28 110t77.5 74t113.5 27q63 0 107.5 -26.5t68 -73t23.5 -107.5v-27h-336l1 63h198q0 24 -7.5 40.5t-22.5 25.5t-37 9q-25 0 -42 -12.5t-25.5 -36t-8.5 -55.5q0 -37 14.5 -61.5t39.5 -37t58 -12.5q36 0 68 12t56 31
l41 -88q-34 -30 -81 -48t-104 -18zM243 444l-14 44q15 7 24 15.5t9 22.5q0 16 -11 24t-30 8q-15 0 -29.5 -4.5t-27.5 -12.5l-17 49q18 15 42.5 24.5t52.5 9.5q43 0 69 -22t26 -60t-24.5 -62.5t-69.5 -35.5z" />
    <glyph glyph-name="uni1EBC" unicode="&#x1ebc;" horiz-adv-x="651" 
d="M47 0v102h57v373h-57v103h547v-200h-105v97h-215v-132h90v58h84v-211h-84v58h-90v-145h219v107h105v-210h-551zM416 648q-28 0 -55.5 11.5t-51.5 23t-42 11.5q-36 0 -40 -41h-70q7 79 39.5 111.5t76.5 32.5q27 0 54.5 -11t51.5 -23t41 -12q18 0 28.5 10t13.5 31h69
q-6 -77 -38 -110.5t-77 -33.5z" />
    <glyph glyph-name="uni1EBD" unicode="&#x1ebd;" 
d="M248 -11q-69 0 -120.5 25t-80.5 72.5t-29 113.5q0 63 28 110t77.5 74t113.5 27q63 0 107.5 -26.5t68 -73t23.5 -107.5v-27h-336l1 63h198q0 24 -7.5 40.5t-22.5 25.5t-37 9q-25 0 -42 -12.5t-25.5 -36t-8.5 -55.5q0 -37 14.5 -61.5t39.5 -37t58 -12.5q36 0 68 12t56 31
l41 -88q-34 -30 -81 -48t-104 -18zM321 471q-28 0 -55.5 11.5t-51.5 23t-42 11.5q-36 0 -40 -41h-70q7 79 39.5 111.5t76.5 32.5q27 0 54.5 -11t51.5 -23t41 -12q18 0 28.5 10t13.5 31h69q-6 -77 -38 -110.5t-77 -33.5z" />
    <glyph glyph-name="uni1EBE" unicode="&#x1ebe;" horiz-adv-x="651" 
d="M47 0v102h57v373h-57v103h547v-200h-105v97h-215v-132h90v58h84v-211h-84v58h-90v-145h219v107h105v-210h-551zM190 638l86 137h137l85 -137h-93l-61 77l-61 -77h-93zM473 731l43 136h108l-81 -136h-70z" />
    <glyph glyph-name="uni1EBF" unicode="&#x1ebf;" 
d="M248 -11q-69 0 -120.5 25t-80.5 72.5t-29 113.5q0 63 28 110t77.5 74t113.5 27q63 0 107.5 -26.5t68 -73t23.5 -107.5v-27h-336l1 63h198q0 24 -7.5 40.5t-22.5 25.5t-37 9q-25 0 -42 -12.5t-25.5 -36t-8.5 -55.5q0 -37 14.5 -61.5t39.5 -37t58 -12.5q36 0 68 12t56 31
l41 -88q-34 -30 -81 -48t-104 -18zM95 461l86 137h137l85 -137h-93l-61 77l-61 -77h-93zM378 554l43 136h108l-81 -136h-70z" />
    <glyph glyph-name="uni1EC0" unicode="&#x1ec0;" horiz-adv-x="651" 
d="M47 0v102h57v373h-57v103h547v-200h-105v97h-215v-132h90v58h84v-211h-84v58h-90v-145h219v107h105v-210h-551zM190 638l86 137h137l85 -137h-93l-61 77l-61 -77h-93zM574 731h-70l-81 136h108z" />
    <glyph glyph-name="uni1EC1" unicode="&#x1ec1;" 
d="M248 -11q-69 0 -120.5 25t-80.5 72.5t-29 113.5q0 63 28 110t77.5 74t113.5 27q63 0 107.5 -26.5t68 -73t23.5 -107.5v-27h-336l1 63h198q0 24 -7.5 40.5t-22.5 25.5t-37 9q-25 0 -42 -12.5t-25.5 -36t-8.5 -55.5q0 -37 14.5 -61.5t39.5 -37t58 -12.5q36 0 68 12t56 31
l41 -88q-34 -30 -81 -48t-104 -18zM95 461l86 137h137l85 -137h-93l-61 77l-61 -77h-93zM479 554h-70l-81 136h108z" />
    <glyph glyph-name="uni1EC2" unicode="&#x1ec2;" horiz-adv-x="651" 
d="M47 0v102h57v373h-57v103h547v-200h-105v97h-215v-132h90v58h84v-211h-84v58h-90v-145h219v107h105v-210h-551zM190 638l86 137h137l85 -137h-93l-61 77l-61 -77h-93zM489 715l-14 44q15 7 24 15.5t9 22.5q0 16 -11 24t-30 8q-15 0 -29.5 -4.5t-27.5 -12.5l-16 49
q18 15 42 24.5t52 9.5q43 0 69.5 -22t26.5 -60t-24.5 -62.5t-70.5 -35.5z" />
    <glyph glyph-name="uni1EC3" unicode="&#x1ec3;" 
d="M248 -11q-69 0 -120.5 25t-80.5 72.5t-29 113.5q0 63 28 110t77.5 74t113.5 27q63 0 107.5 -26.5t68 -73t23.5 -107.5v-27h-336l1 63h198q0 24 -7.5 40.5t-22.5 25.5t-37 9q-25 0 -42 -12.5t-25.5 -36t-8.5 -55.5q0 -37 14.5 -61.5t39.5 -37t58 -12.5q36 0 68 12t56 31
l41 -88q-34 -30 -81 -48t-104 -18zM95 461l86 137h137l85 -137h-93l-61 77l-61 -77h-93zM394 538l-14 44q15 7 24 15.5t9 22.5q0 16 -11 24t-30 8q-15 0 -29.5 -4.5t-27.5 -12.5l-16 49q18 15 42 24.5t52 9.5q43 0 69.5 -22t26.5 -60t-24.5 -62.5t-70.5 -35.5z" />
    <glyph glyph-name="uni1EC4" unicode="&#x1ec4;" horiz-adv-x="651" 
d="M47 0v102h57v373h-57v103h547v-200h-105v97h-215v-132h90v58h84v-211h-84v58h-90v-145h219v107h105v-210h-551zM190 638l86 137h137l85 -137h-93l-61 77l-61 -77h-93zM419 815q-26 0 -49.5 10.5t-45 21t-42.5 10.5q-36 0 -40 -41h-70q6 69 34 97t65 28q25 0 47.5 -10
t44.5 -20.5t42 -10.5q18 0 29 8.5t13 27.5h69q-5 -63 -30.5 -92t-66.5 -29z" />
    <glyph glyph-name="uni1EC5" unicode="&#x1ec5;" 
d="M248 -11q-69 0 -120.5 25t-80.5 72.5t-29 113.5q0 63 28 110t77.5 74t113.5 27q63 0 107.5 -26.5t68 -73t23.5 -107.5v-27h-336l1 63h198q0 24 -7.5 40.5t-22.5 25.5t-37 9q-25 0 -42 -12.5t-25.5 -36t-8.5 -55.5q0 -37 14.5 -61.5t39.5 -37t58 -12.5q36 0 68 12t56 31
l41 -88q-34 -30 -81 -48t-104 -18zM95 461l86 137h137l85 -137h-93l-61 77l-61 -77h-93zM324 638q-26 0 -49.5 10.5t-45 21t-42.5 10.5q-36 0 -40 -41h-70q6 69 34 97t65 28q25 0 47.5 -10t44.5 -20.5t42 -10.5q18 0 29 8.5t13 27.5h69q-5 -63 -30.5 -92t-66.5 -29z" />
    </font>
</defs>
</svg>
